  0
SECTION
  2
HEADER
  9
$ACADVER
  1
AC1021
  9
$ACADMAINTVER
 70
    25
  9
$DWGCODEPAGE
  3
ANSI_1252
  9
$INSBASE
 10
0.0
 20
0.0
 30
0.0
  9
$EXTMIN
 10
-134.27992065226
 20
11.99777028382414
 30
-0.0000000000000182
  9
$EXTMAX
 10
197.543569176089
 20
237.306345593288
 30
0.0
  9
$LIMMIN
 10
-150.6804832169506
 20
13.65951687738395
  9
$LIMMAX
 10
246.5560147830494
 20
294.1937668773839
  9
$ORTHOMODE
 70
     0
  9
$REGENMODE
 70
     1
  9
$FILLMODE
 70
     1
  9
$QTEXTMODE
 70
     0
  9
$MIRRTEXT
 70
     1
  9
$LTSCALE
 40
1.0
  9
$ATTMODE
 70
     1
  9
$TEXTSIZE
 40
5.0
  9
$TRACEWID
 40
1.0
  9
$TEXTSTYLE
  7
Standard
  9
$CLAYER
  8
0
  9
$CELTYPE
  6
ByLayer
  9
$CECOLOR
 62
     7
  9
$CELTSCALE
 40
1.0
  9
$DISPSILH
 70
     0
  9
$DIMSCALE
 40
1.0
  9
$DIMASZ
 40
3.0
  9
$DIMEXO
 40
1.0
  9
$DIMDLI
 40
7.5
  9
$DIMRND
 40
2.0
  9
$DIMDLE
 40
0.0
  9
$DIMEXE
 40
2.0
  9
$DIMTP
 40
0.0
  9
$DIMTM
 40
0.0
  9
$DIMTXT
 40
4.0625
  9
$DIMCEN
 40
0.09
  9
$DIMTSZ
 40
0.0
  9
$DIMTOL
 70
     0
  9
$DIMLIM
 70
     0
  9
$DIMTIH
 70
     1
  9
$DIMTOH
 70
     0
  9
$DIMSE1
 70
     0
  9
$DIMSE2
 70
     0
  9
$DIMTAD
 70
     1
  9
$DIMZIN
 70
     8
  9
$DIMBLK
  1

  9
$DIMASO
 70
     0
  9
$DIMSHO
 70
     1
  9
$DIMPOST
  1

  9
$DIMAPOST
  1

  9
$DIMALT
 70
     0
  9
$DIMALTD
 70
     2
  9
$DIMALTF
 40
1.0
  9
$DIMLFAC
 40
1.0
  9
$DIMTOFL
 70
     1
  9
$DIMTVP
 40
0.0
  9
$DIMTIX
 70
     1
  9
$DIMSOXD
 70
     0
  9
$DIMSAH
 70
     0
  9
$DIMBLK1
  1

  9
$DIMBLK2
  1

  9
$DIMSTYLE
  2
Standard
  9
$DIMCLRD
 70
     7
  9
$DIMCLRE
 70
     7
  9
$DIMCLRT
 70
     7
  9
$DIMTFAC
 40
1.0
  9
$DIMGAP
 40
2.0
  9
$DIMJUST
 70
     0
  9
$DIMSD1
 70
     0
  9
$DIMSD2
 70
     0
  9
$DIMTOLJ
 70
     1
  9
$DIMTZIN
 70
     0
  9
$DIMALTZ
 70
     0
  9
$DIMALTTZ
 70
     0
  9
$DIMUPT
 70
     0
  9
$DIMDEC
 70
     4
  9
$DIMTDEC
 70
     4
  9
$DIMALTU
 70
     2
  9
$DIMALTTD
 70
     2
  9
$DIMTXSTY
  7
Standard
  9
$DIMAUNIT
 70
     0
  9
$DIMADEC
 70
     0
  9
$DIMALTRND
 40
0.0
  9
$DIMAZIN
 70
     0
  9
$DIMDSEP
 70
    46
  9
$DIMATFIT
 70
     3
  9
$DIMFRAC
 70
     0
  9
$DIMLDRBLK
  1

  9
$DIMLUNIT
 70
     2
  9
$DIMLWD
 70
    -2
  9
$DIMLWE
 70
    -2
  9
$DIMTMOVE
 70
     0
  9
$DIMFXL
 40
1.0
  9
$DIMFXLON
 70
     0
  9
$DIMJOGANG
 40
0.7853981633974483
  9
$DIMTFILL
 70
     0
  9
$DIMTFILLCLR
 70
     0
  9
$DIMARCSYM
 70
     0
  9
$DIMLTYPE
  6

  9
$DIMLTEX1
  6

  9
$DIMLTEX2
  6

  9
$LUNITS
 70
     2
  9
$LUPREC
 70
     2
  9
$SKETCHINC
 40
1.0
  9
$FILLETRAD
 40
5.0
  9
$AUNITS
 70
     0
  9
$AUPREC
 70
     2
  9
$MENU
  1
.
  9
$ELEVATION
 40
0.0
  9
$PELEVATION
 40
0.0
  9
$THICKNESS
 40
0.0
  9
$LIMCHECK
 70
     0
  9
$CHAMFERA
 40
0.5
  9
$CHAMFERB
 40
0.5
  9
$CHAMFERC
 40
1.0
  9
$CHAMFERD
 40
0.0
  9
$SKPOLY
 70
     0
  9
$TDCREATE
 40
2455841.579938148
  9
$TDUCREATE
 40
2455841.204938148
  9
$TDUPDATE
 40
2455841.57993816
  9
$TDUUPDATE
 40
2455841.20493816
  9
$TDINDWG
 40
0.0
  9
$TDUSRTIMER
 40
0.0
  9
$USRTIMER
 70
     1
  9
$ANGBASE
 50
0.0
  9
$ANGDIR
 70
     0
  9
$PDMODE
 70
     0
  9
$PDSIZE
 40
0.0
  9
$PLINEWID
 40
0.0
  9
$SPLFRAME
 70
     0
  9
$SPLINETYPE
 70
     5
  9
$SPLINESEGS
 70
    20
  9
$HANDSEED
  5
15A
  9
$SURFTAB1
 70
     6
  9
$SURFTAB2
 70
     6
  9
$SURFTYPE
 70
     6
  9
$SURFU
 70
     6
  9
$SURFV
 70
     6
  9
$UCSBASE
  2

  9
$UCSNAME
  2

  9
$UCSORG
 10
0.0
 20
0.0
 30
0.0
  9
$UCSXDIR
 10
1.0
 20
0.0
 30
0.0
  9
$UCSYDIR
 10
0.0
 20
1.0
 30
0.0
  9
$UCSORTHOREF
  2

  9
$UCSORTHOVIEW
 70
     0
  9
$UCSORGTOP
 10
0.0
 20
0.0
 30
0.0
  9
$UCSORGBOTTOM
 10
0.0
 20
0.0
 30
0.0
  9
$UCSORGLEFT
 10
0.0
 20
0.0
 30
0.0
  9
$UCSORGRIGHT
 10
0.0
 20
0.0
 30
0.0
  9
$UCSORGFRONT
 10
0.0
 20
0.0
 30
0.0
  9
$UCSORGBACK
 10
0.0
 20
0.0
 30
0.0
  9
$PUCSBASE
  2

  9
$PUCSNAME
  2

  9
$PUCSORG
 10
0.0
 20
0.0
 30
0.0
  9
$PUCSXDIR
 10
1.0
 20
0.0
 30
0.0
  9
$PUCSYDIR
 10
0.0
 20
1.0
 30
0.0
  9
$PUCSORTHOREF
  2

  9
$PUCSORTHOVIEW
 70
     0
  9
$PUCSORGTOP
 10
0.0
 20
0.0
 30
0.0
  9
$PUCSORGBOTTOM
 10
0.0
 20
0.0
 30
0.0
  9
$PUCSORGLEFT
 10
0.0
 20
0.0
 30
0.0
  9
$PUCSORGRIGHT
 10
0.0
 20
0.0
 30
0.0
  9
$PUCSORGFRONT
 10
0.0
 20
0.0
 30
0.0
  9
$PUCSORGBACK
 10
0.0
 20
0.0
 30
0.0
  9
$USERI1
 70
     0
  9
$USERI2
 70
     0
  9
$USERI3
 70
     0
  9
$USERI4
 70
     0
  9
$USERI5
 70
     0
  9
$USERR1
 40
0.0
  9
$USERR2
 40
0.0
  9
$USERR3
 40
0.0
  9
$USERR4
 40
0.0
  9
$USERR5
 40
0.0
  9
$WORLDVIEW
 70
     1
  9
$SHADEDGE
 70
     3
  9
$SHADEDIF
 70
    70
  9
$TILEMODE
 70
     1
  9
$MAXACTVP
 70
    64
  9
$PINSBASE
 10
0.0
 20
0.0
 30
0.0
  9
$PLIMCHECK
 70
     0
  9
$PEXTMIN
 10
0.0
 20
0.0
 30
0.0
  9
$PEXTMAX
 10
210.0
 20
297.0
 30
0.0
  9
$PLIMMIN
 10
0.0
 20
0.0
  9
$PLIMMAX
 10
210.0
 20
297.0
  9
$UNITMODE
 70
     0
  9
$VISRETAIN
 70
     1
  9
$PLINEGEN
 70
     0
  9
$PSLTSCALE
 70
     1
  9
$TREEDEPTH
 70
  3020
  9
$CMLSTYLE
  2
Standard
  9
$CMLJUST
 70
     0
  9
$CMLSCALE
 40
1.0
  9
$PROXYGRAPHICS
 70
     1
  9
$MEASUREMENT
 70
     1
  9
$CELWEIGHT
370
    -1
  9
$ENDCAPS
280
     0
  9
$JOINSTYLE
280
     0
  9
$LWDISPLAY
290
     0
  9
$INSUNITS
 70
     0
  9
$HYPERLINKBASE
  1

  9
$STYLESHEET
  1

  9
$XEDIT
290
     1
  9
$CEPSNTYPE
380
     0
  9
$PSTYLEMODE
290
     1
  9
$FINGERPRINTGUID
  2
{C956A51F-D733-43DF-BD72-8F909B83CA8F}
  9
$VERSIONGUID
  2
{FAEB1C32-E019-11D5-929B-00C0DF256EC4}
  9
$EXTNAMES
290
     1
  9
$PSVPSCALE
 40
0.0
  9
$OLESTARTUP
290
     0
  9
$SORTENTS
280
   127
  9
$INDEXCTL
280
     0
  9
$HIDETEXT
280
     1
  9
$XCLIPFRAME
290
     0
  9
$HALOGAP
280
     0
  9
$OBSCOLOR
 70
   257
  9
$OBSLTYPE
280
     0
  9
$INTERSECTIONDISPLAY
280
     0
  9
$INTERSECTIONCOLOR
 70
   257
  9
$DIMASSOC
280
     2
  9
$PROJECTNAME
  1

  9
$CAMERADISPLAY
290
     0
  9
$LENSLENGTH
 40
50.0
  9
$CAMERAHEIGHT
 40
0.0
  9
$STEPSPERSEC
 40
2.0
  9
$STEPSIZE
 40
6.0
  9
$3DDWFPREC
 40
2.0
  9
$PSOLWIDTH
 40
0.25
  9
$PSOLHEIGHT
 40
4.0
  9
$LOFTANG1
 40
1.570796326794897
  9
$LOFTANG2
 40
1.570796326794897
  9
$LOFTMAG1
 40
0.0
  9
$LOFTMAG2
 40
0.0
  9
$LOFTPARAM
 70
     7
  9
$LOFTNORMALS
280
     1
  9
$LATITUDE
 40
37.795
  9
$LONGITUDE
 40
-122.394
  9
$NORTHDIRECTION
 40
0.0
  9
$TIMEZONE
 70
 -8000
  9
$LIGHTGLYPHDISPLAY
280
     1
  9
$TILEMODELIGHTSYNCH
280
     1
  9
$SOLIDHIST
280
     1
  9
$SHOWHIST
280
     1
  9
$DWFFRAME
280
     2
  9
$DGNFRAME
280
     2
  9
$REALWORLDSCALE
290
     1
  9
$INTERFERECOLOR
 62
   256
  9
$CSHADOW
280
     0
  9
$SHADOWPLANELOCATION
 40
0.0
  0
ENDSEC
  0
SECTION
  2
CLASSES
  0
CLASS
  1
ACDBDICTIONARYWDFLT
  2
AcDbDictionaryWithDefault
  3
ObjectDBX Classes
 90
        0
 91
        4
280
     0
281
     0
  0
CLASS
  1
VISUALSTYLE
  2
AcDbVisualStyle
  3
ObjectDBX Classes
 90
     4095
 91
        4
280
     0
281
     0
  0
CLASS
  1
SCALE
  2
AcDbScale
  3
ObjectDBX Classes
 90
        0
 91
        4
280
     0
281
     0
  0
CLASS
  1
TABLESTYLE
  2
AcDbTableStyle
  3
ObjectDBX Classes
 90
     4095
 91
        3
280
     0
281
     0
  0
CLASS
  1
TCOPTIONALDATA
  2
TcOptionalData
  3
ExTcadCustObjs|Description: TurboCAD extension data object
 90
        0
 91
        3
280
     0
281
     0
  0
ENDSEC
  0
SECTION
  2
TABLES
  0
TABLE
  2
VPORT
  5
8
330
0
100
AcDbSymbolTable
 70
     1
  0
VPORT
  5
29
330
8
100
AcDbSymbolTableRecord
100
AcDbViewportTableRecord
  2
*Active
 70
     0
 10
0.0
 20
0.0
 11
1.0
 21
1.0
 12
0.0
 22
0.0
 13
0.0
 23
0.0
 14
5.0
 24
5.0
 15
5.0
 25
5.0
 16
0.0
 26
0.0
 36
1.0
 17
-5.52187279300129
 27
128.3801252174088
 37
0.0
 40
240.8050358213281
 41
1.191489361702128
 42
50.0
 43
0.0
 44
0.0
 50
0.0
 51
0.0
 71
     0
 72
   100
 73
     1
 74
     3
 75
     0
 76
     1
 77
     0
 78
     0
281
     0
 65
     1
110
0.0
120
0.0
130
0.0
111
1.0
121
0.0
131
0.0
112
0.0
122
1.0
132
0.0
 79
     0
146
0.0
 60
     3
 61
     5
292
     1
282
     1
141
0.0
142
0.0
 63
   256
  0
ENDTAB
  0
TABLE
  2
LTYPE
  5
5
330
0
100
AcDbSymbolTable
 70
    21
  0
LTYPE
  5
14
330
5
100
AcDbSymbolTableRecord
100
AcDbLinetypeTableRecord
  2
ByBlock
 70
     0
  3

 72
    65
 73
     0
 40
0.0
  0
LTYPE
  5
15
330
5
100
AcDbSymbolTableRecord
100
AcDbLinetypeTableRecord
  2
ByLayer
 70
     0
  3

 72
    65
 73
     0
 40
0.0
  0
LTYPE
  5
16
330
5
100
AcDbSymbolTableRecord
100
AcDbLinetypeTableRecord
  2
Continuous
 70
     0
  3
Solid line
 72
    65
 73
     0
 40
0.0
  0
LTYPE
  5
5E
330
5
100
AcDbSymbolTableRecord
100
AcDbLinetypeTableRecord
  2
BORDER
 70
     0
  3
BORDER
 72
    65
 73
     6
 40
1.75
 49
0.5
 74
     0
 49
-0.25
 74
     0
 49
0.5
 74
     0
 49
-0.25
 74
     0
 49
0.0
 74
     0
 49
-0.25
 74
     0
  0
LTYPE
  5
5F
330
5
100
AcDbSymbolTableRecord
100
AcDbLinetypeTableRecord
  2
CENTER
 70
     0
  3
CENTER
 72
    65
 73
     4
 40
2.0
 49
1.25
 74
     0
 49
-0.25
 74
     0
 49
0.25
 74
     0
 49
-0.25
 74
     0
  0
LTYPE
  5
60
330
5
100
AcDbSymbolTableRecord
100
AcDbLinetypeTableRecord
  2
DASHDOT
 70
     0
  3
DASHDOT
 72
    65
 73
     4
 40
1.0
 49
0.5
 74
     0
 49
-0.25
 74
     0
 49
0.0
 74
     0
 49
-0.25
 74
     0
  0
LTYPE
  5
61
330
5
100
AcDbSymbolTableRecord
100
AcDbLinetypeTableRecord
  2
DASHED
 70
     0
  3
DASHED
 72
    65
 73
     2
 40
0.75
 49
0.5
 74
     0
 49
-0.25
 74
     0
  0
LTYPE
  5
62
330
5
100
AcDbSymbolTableRecord
100
AcDbLinetypeTableRecord
  2
DIVIDE
 70
     0
  3
DIVIDE
 72
    65
 73
     6
 40
1.25
 49
0.5
 74
     0
 49
-0.25
 74
     0
 49
0.0
 74
     0
 49
-0.25
 74
     0
 49
0.0
 74
     0
 49
-0.25
 74
     0
  0
LTYPE
  5
63
330
5
100
AcDbSymbolTableRecord
100
AcDbLinetypeTableRecord
  2
DOT
 70
     0
  3
DOT
 72
    65
 73
     2
 40
0.25
 49
0.0
 74
     0
 49
-0.25
 74
     0
  0
LTYPE
  5
64
330
5
100
AcDbSymbolTableRecord
100
AcDbLinetypeTableRecord
  2
HIDDEN
 70
     0
  3
HIDDEN
 72
    65
 73
     2
 40
0.375
 49
0.25
 74
     0
 49
-0.125
 74
     0
  0
LTYPE
  5
65
330
5
100
AcDbSymbolTableRecord
100
AcDbLinetypeTableRecord
  2
PHANTOM
 70
     0
  3
PHANTOM
 72
    65
 73
     6
 40
2.5
 49
1.25
 74
     0
 49
-0.25
 74
     0
 49
0.25
 74
     0
 49
-0.25
 74
     0
 49
0.25
 74
     0
 49
-0.25
 74
     0
  0
LTYPE
  5
66
330
5
100
AcDbSymbolTableRecord
100
AcDbLinetypeTableRecord
  2
$INVISIBLE
 70
     0
  3
$INVISIBLE
 72
    65
 73
     2
 40
200.0
 49
-100.0
 74
     0
 49
-100.0
 74
     0
  0
LTYPE
  5
67
330
5
100
AcDbSymbolTableRecord
100
AcDbLinetypeTableRecord
  2
境界線
 70
     0
  3
境界線
 72
    65
 73
     6
 40
1.75
 49
0.5
 74
     0
 49
-0.25
 74
     0
 49
0.5
 74
     0
 49
-0.25
 74
     0
 49
0.0
 74
     0
 49
-0.25
 74
     0
  0
LTYPE
  5
68
330
5
100
AcDbSymbolTableRecord
100
AcDbLinetypeTableRecord
  2
一点鎖線(1)
 70
     0
  3
一点鎖線(1)
 72
    65
 73
     4
 40
2.0
 49
1.25
 74
     0
 49
-0.25
 74
     0
 49
0.25
 74
     0
 49
-0.25
 74
     0
  0
LTYPE
  5
69
330
5
100
AcDbSymbolTableRecord
100
AcDbLinetypeTableRecord
  2
一点鎖線(2)
 70
     0
  3
一点鎖線(2)
 72
    65
 73
     4
 40
1.0
 49
0.5
 74
     0
 49
-0.25
 74
     0
 49
0.0
 74
     0
 49
-0.25
 74
     0
  0
LTYPE
  5
6A
330
5
100
AcDbSymbolTableRecord
100
AcDbLinetypeTableRecord
  2
鎖線(1)
 70
     0
  3
鎖線(1)
 72
    65
 73
     2
 40
0.75
 49
0.5
 74
     0
 49
-0.25
 74
     0
  0
LTYPE
  5
6B
330
5
100
AcDbSymbolTableRecord
100
AcDbLinetypeTableRecord
  2
二点鎖線(1)
 70
     0
  3
二点鎖線(1)
 72
    65
 73
     6
 40
1.25
 49
0.5
 74
     0
 49
-0.25
 74
     0
 49
0.0
 74
     0
 49
-0.25
 74
     0
 49
0.0
 74
     0
 49
-0.25
 74
     0
  0
LTYPE
  5
6C
330
5
100
AcDbSymbolTableRecord
100
AcDbLinetypeTableRecord
  2
点線
 70
     0
  3
点線
 72
    65
 73
     2
 40
0.25
 49
0.0
 74
     0
 49
-0.25
 74
     0
  0
LTYPE
  5
6D
330
5
100
AcDbSymbolTableRecord
100
AcDbLinetypeTableRecord
  2
鎖線(2)
 70
     0
  3
鎖線(2)
 72
    65
 73
     2
 40
0.375
 49
0.25
 74
     0
 49
-0.125
 74
     0
  0
LTYPE
  5
6E
330
5
100
AcDbSymbolTableRecord
100
AcDbLinetypeTableRecord
  2
二点鎖線(2)
 70
     0
  3
二点鎖線(2)
 72
    65
 73
     6
 40
2.5
 49
1.25
 74
     0
 49
-0.25
 74
     0
 49
0.25
 74
     0
 49
-0.25
 74
     0
 49
0.25
 74
     0
 49
-0.25
 74
     0
  0
LTYPE
  5
6F
330
5
100
AcDbSymbolTableRecord
100
AcDbLinetypeTableRecord
  2
$AUXILIARY
 70
     0
  3
$AUXILIARY
 72
    65
 73
     2
 40
0.10000000149
 49
0.050000000745
 74
     0
 49
-0.050000000745
 74
     0
  0
LTYPE
  5
70
330
5
100
AcDbSymbolTableRecord
100
AcDbLinetypeTableRecord
  2
$CONSTRUCTION
 70
     0
  3
$CONSTRUCTION
 72
    65
 73
     4
 40
0.3
 49
0.2
 74
     0
 49
-0.05
 74
     0
 49
0.0
 74
     0
 49
-0.05
 74
     0
  0
LTYPE
  5
71
330
5
100
AcDbSymbolTableRecord
100
AcDbLinetypeTableRecord
  2
$SNAPEXT
 70
     0
  3
$SNAPEXT
 72
    65
 73
     2
 40
0.04
 49
0.02
 74
     0
 49
-0.02
 74
     0
  0
ENDTAB
  0
TABLE
  2
LAYER
  5
2
330
0
100
AcDbSymbolTable
 70
     3
  0
LAYER
  5
10
330
2
100
AcDbSymbolTableRecord
100
AcDbLayerTableRecord
  2
0
 70
     0
 62
     7
  6
Continuous
370
     0
390
F
347
0
  0
LAYER
  5
72
330
2
100
AcDbSymbolTableRecord
100
AcDbLayerTableRecord
  2
Layer_1
 70
     0
 62
     7
  6
Continuous
370
     0
390
F
347
0
  0
LAYER
  5
73
330
2
100
AcDbSymbolTableRecord
100
AcDbLayerTableRecord
  2
Defpoints
 70
     0
 62
     7
  6
Continuous
290
     0
370
     0
390
F
347
0
  0
ENDTAB
  0
TABLE
  2
STYLE
  5
3
330
0
100
AcDbSymbolTable
 70
     6
  0
STYLE
  5
11
330
3
100
AcDbSymbolTableRecord
100
AcDbTextStyleTableRecord
  2
Standard
 70
     0
 40
0.0
 41
1.0
 50
0.0
 71
     0
 42
0.2
  3
txt
  4

  0
STYLE
  5
77
330
3
100
AcDbSymbolTableRecord
100
AcDbTextStyleTableRecord
  2
_TCW_TXTSTY_1
 70
     0
 40
0.0
 41
1.0
 50
0.0
 71
     0
 42
0.78125
  3

  4

1001
ACAD
1000
HG平成角ｺﾞｼｯｸ体W7
1071
    32802
  0
STYLE
  5
9C
330
3
100
AcDbSymbolTableRecord
100
AcDbTextStyleTableRecord
  2
_TCW_TXTSTY_2
 70
     0
 40
0.0
 41
1.0
 50
0.0
 71
     0
 42
0.78125
  3
MSGOTHIC.TTC
  4

1001
ACAD
1000
ＭＳ ゴシック
1071
    32802
  0
STYLE
  5
AC
330
3
100
AcDbSymbolTableRecord
100
AcDbTextStyleTableRecord
  2
_TCW_TXTSTY_3
 70
     0
 40
0.0
 41
1.0
 50
0.0
 71
     0
 42
0.78125
  3

  4

1001
ACAD
1000
ＭＳ ゴシック
1071
    32802
  0
STYLE
  5
145
330
3
100
AcDbSymbolTableRecord
100
AcDbTextStyleTableRecord
  2
_TCW_TXTSTY_4
 70
     0
 40
0.0
 41
1.0
 50
0.0
 71
     0
 42
7.8125
  3
HGRHG7.TTC
  4

1001
ACAD
1000
HGS平成角ｺﾞｼｯｸ体W7
1071
    32802
  0
STYLE
  5
14D
330
3
100
AcDbSymbolTableRecord
100
AcDbTextStyleTableRecord
  2
_TCW_TXTSTY_5
 70
     0
 40
0.0
 41
1.0
 50
0.0
 71
     0
 42
3.90625
  3
HGRHG3.TTC
  4

1001
ACAD
1000
HG平成角ｺﾞｼｯｸ体W3
1071
    32802
  0
ENDTAB
  0
TABLE
  2
VIEW
  5
6
330
0
100
AcDbSymbolTable
 70
     2
  0
VIEW
  5
74
330
6
100
AcDbSymbolTableRecord
100
AcDbViewTableRecord
  2
表示_0
 70
     0
 40
210.0
 10
148.5
 20
105.0
 41
297.0
 11
0.0
 21
0.0
 31
1.0
 12
0.0
 22
0.0
 32
0.0
 42
50.0
 43
0.0
 44
0.0
 50
0.0
 71
     0
281
     0
 72
     0
 73
     0
  0
VIEW
  5
75
330
6
100
AcDbSymbolTableRecord
100
AcDbViewTableRecord
  2
View_1
 70
     0
 40
297.0
 10
105.0
 20
148.5
 41
210.0
 11
0.0
 21
0.0
 31
1.0
 12
0.0
 22
0.0
 32
0.0
 42
50.0
 43
0.0
 44
0.0
 50
0.0
 71
     0
281
     0
 72
     0
 73
     0
  0
ENDTAB
  0
TABLE
  2
UCS
  5
7
330
0
100
AcDbSymbolTable
 70
     0
  0
ENDTAB
  0
TABLE
  2
APPID
  5
9
330
0
100
AcDbSymbolTable
 70
     2
  0
APPID
  5
12
330
9
100
AcDbSymbolTableRecord
100
AcDbRegAppTableRecord
  2
ACAD
 70
     0
  0
APPID
  5
5D
330
9
100
AcDbSymbolTableRecord
100
AcDbRegAppTableRecord
  2
TCAD
 70
     0
  0
ENDTAB
  0
TABLE
  2
DIMSTYLE
  5
A
330
0
100
AcDbSymbolTable
 70
     5
100
AcDbDimStyleTable
  0
DIMSTYLE
105
27
330
A
100
AcDbSymbolTableRecord
100
AcDbDimStyleTableRecord
  2
Standard
 70
     0
340
11
  0
DIMSTYLE
105
76
102
{ACAD_REACTORS
330
9E
330
AD
330
BB
102
}
330
A
100
AcDbSymbolTableRecord
100
AcDbDimStyleTableRecord
  2
標準寸法
 70
     0
 45
0.0000001
140
0.234375
148
0.0000001
179
     4
340
77
  0
DIMSTYLE
105
78
330
A
100
AcDbSymbolTableRecord
100
AcDbDimStyleTableRecord
  2
標準寸法0
 70
     0
 45
0.0000001
140
0.2343749999999999
148
0.0000001
179
     4
340
77
  0
DIMSTYLE
105
79
330
A
100
AcDbSymbolTableRecord
100
AcDbDimStyleTableRecord
  2
標準寸法00
 70
     0
 45
0.0000001
140
0.2343749999999999
148
0.0000001
179
     4
340
77
  0
DIMSTYLE
105
7A
330
A
100
AcDbSymbolTableRecord
100
AcDbDimStyleTableRecord
  2
標準寸法000
 70
     0
 41
3.0
 42
1.0
 43
7.5
 44
2.0
 45
2.0
 77
     1
 78
     8
140
4.0625
143
1.0
147
2.0
148
0.01
172
     1
176
     7
177
     7
178
     7
179
     2
271
     2
272
     2
286
     8
340
77
  0
ENDTAB
  0
TABLE
  2
BLOCK_RECORD
  5
1
330
0
100
AcDbSymbolTable
 70
     4
  0
BLOCK_RECORD
  5
1F
330
1
100
AcDbSymbolTableRecord
100
AcDbBlockTableRecord
  2
*Model_Space
340
22
 70
     0
280
     1
281
     0
  0
BLOCK_RECORD
  5
1B
330
1
100
AcDbSymbolTableRecord
100
AcDbBlockTableRecord
  2
*Paper_Space
340
1E
 70
     0
280
     1
281
     0
  0
BLOCK_RECORD
  5
9F
330
1
100
AcDbSymbolTableRecord
100
AcDbBlockTableRecord
  2
*D1
340
0
 70
     0
280
     1
281
     0
  0
BLOCK_RECORD
  5
AE
330
1
100
AcDbSymbolTableRecord
100
AcDbBlockTableRecord
  2
*D2
340
0
 70
     0
280
     1
281
     0
  0
BLOCK_RECORD
  5
BC
330
1
100
AcDbSymbolTableRecord
100
AcDbBlockTableRecord
  2
*D3
340
0
 70
     0
280
     1
281
     0
  0
ENDTAB
  0
ENDSEC
  0
SECTION
  2
BLOCKS
  0
BLOCK
  5
20
330
1F
100
AcDbEntity
  8
0
100
AcDbBlockBegin
  2
*Model_Space
 70
     0
 10
0.0
 20
0.0
 30
0.0
  3
*Model_Space
  1

  0
ENDBLK
  5
21
330
1F
100
AcDbEntity
  8
0
100
AcDbBlockEnd
  0
BLOCK
  5
1C
330
1B
100
AcDbEntity
 67
     1
  8
0
100
AcDbBlockBegin
  2
*Paper_Space
 70
     0
 10
0.0
 20
0.0
 30
0.0
  3
*Paper_Space
  1

  0
ENDBLK
  5
1D
330
1B
100
AcDbEntity
 67
     1
  8
0
100
AcDbBlockEnd
  0
BLOCK
  5
AA
330
9F
100
AcDbEntity
  8
0
100
AcDbBlockBegin
  2
*D1
 70
     1
 10
0.0
 20
0.0
 30
0.0
  3
*D1
  1

  0
LINE
  5
A0
330
9F
100
AcDbEntity
  8
0
  6
Continuous
 62
     7
370
    -2
100
AcDbLine
 10
105.453491901236
 20
152.235429682974
 30
0.0
 11
182.777369307605
 21
152.235429682974
 31
0.0
  0
LINE
  5
A1
330
9F
100
AcDbEntity
  8
0
  6
Continuous
 62
     7
370
    -2
100
AcDbLine
 10
105.047513829925
 20
63.830459233616
 30
0.0
 11
182.777369307605
 21
63.83045923361599
 31
0.0
  0
LINE
  5
A2
330
9F
100
AcDbEntity
  8
0
  6
Continuous
 62
     7
370
    -2
100
AcDbLine
 10
180.777369307605
 20
149.235429682974
 30
0.0
 11
180.777369307605
 21
112.064194458295
 31
0.0
  0
LINE
  5
A3
330
9F
100
AcDbEntity
  8
0
  6
Continuous
 62
     7
370
    -2
100
AcDbLine
 10
180.777369307605
 20
66.83045923361598
 30
0.0
 11
180.777369307605
 21
104.001694458295
 31
0.0
  0
SOLID
  5
A4
330
9F
100
AcDbEntity
  8
0
 62
     7
100
AcDbTrace
 10
181.277369307605
 20
149.235429682974
 30
0.0
 11
180.277369307605
 21
149.235429682974
 31
0.0
 12
180.777369307605
 22
152.235429682974
 32
0.0
 13
180.777369307605
 23
152.235429682974
 33
0.0
  0
SOLID
  5
A5
330
9F
100
AcDbEntity
  8
0
 62
     7
100
AcDbTrace
 10
180.277369307605
 20
66.83045923361598
 30
0.0
 11
181.277369307605
 21
66.83045923361598
 31
0.0
 12
180.777369307605
 22
63.83045923361599
 32
0.0
 13
180.777369307605
 23
63.83045923361599
 33
0.0
  0
MTEXT
  5
A6
330
9F
100
AcDbEntity
  8
0
 62
     7
100
AcDbMText
 10
180.777369307605
 20
108.032944458295
 30
0.0
 40
4.0625
 41
0.0
 46
0.0
 71
     5
 72
     1
  1
\A1;a
  7
_TCW_TXTSTY_2
 73
     1
 44
1.0
  0
POINT
  5
A7
330
9F
100
AcDbEntity
  8
Defpoints
 62
     0
100
AcDbPoint
 10
104.453491901236
 20
152.235429682974
 30
0.0
  0
POINT
  5
A8
330
9F
100
AcDbEntity
  8
Defpoints
 62
     0
100
AcDbPoint
 10
104.047513829925
 20
63.830459233616
 30
0.0
  0
POINT
  5
A9
330
9F
100
AcDbEntity
  8
Defpoints
 62
     0
100
AcDbPoint
 10
180.777369307605
 20
63.83045923361599
 30
0.0
  0
ENDBLK
  5
AB
330
9F
100
AcDbEntity
  8
0
100
AcDbBlockEnd
  0
BLOCK
  5
B8
330
AE
100
AcDbEntity
  8
0
100
AcDbBlockBegin
  2
*D2
 70
     1
 10
0.0
 20
0.0
 30
0.0
  3
*D2
  1

  0
LINE
  5
AF
330
AE
100
AcDbEntity
  8
0
  6
Continuous
 62
     7
370
    -2
100
AcDbLine
 10
44.901601561858
 20
108.938223942886
 30
0.0
 11
44.901601561858
 21
34.16120804555399
 31
0.0
  0
LINE
  5
B0
330
AE
100
AcDbEntity
  8
0
  6
Continuous
 62
     7
370
    -2
100
AcDbLine
 10
108.942503434172
 20
108.53285572367
 30
0.0
 11
108.942503434172
 21
34.16120804555399
 31
0.0
  0
LINE
  5
B1
330
AE
100
AcDbEntity
  8
0
  6
Continuous
 62
     7
370
    -2
100
AcDbLine
 10
47.901601561858
 20
36.16120804555399
 30
0.0
 11
105.942503434172
 21
36.16120804555399
 31
0.0
  0
SOLID
  5
B2
330
AE
100
AcDbEntity
  8
0
 62
     7
100
AcDbTrace
 10
47.901601561858
 20
36.66120804555399
 30
0.0
 11
47.901601561858
 21
35.66120804555399
 31
0.0
 12
44.901601561858
 22
36.16120804555399
 32
0.0
 13
44.901601561858
 23
36.16120804555399
 33
0.0
  0
SOLID
  5
B3
330
AE
100
AcDbEntity
  8
0
 62
     7
100
AcDbTrace
 10
105.942503434172
 20
35.66120804555399
 30
0.0
 11
105.942503434172
 21
36.66120804555399
 31
0.0
 12
108.942503434172
 22
36.16120804555399
 32
0.0
 13
108.942503434172
 23
36.16120804555399
 33
0.0
  0
MTEXT
  5
B4
330
AE
100
AcDbEntity
  8
0
 62
     7
100
AcDbMText
 10
76.922052498015
 20
40.19245804555399
 30
0.0
 40
4.0625
 41
0.0
 46
0.0
 71
     5
 72
     1
  1
\A1;b
  7
_TCW_TXTSTY_3
 73
     1
 44
1.0
  0
POINT
  5
B5
330
AE
100
AcDbEntity
  8
Defpoints
 62
     0
100
AcDbPoint
 10
44.901601561858
 20
109.938223942886
 30
0.0
  0
POINT
  5
B6
330
AE
100
AcDbEntity
  8
Defpoints
 62
     0
100
AcDbPoint
 10
108.942503434172
 20
109.53285572367
 30
0.0
  0
POINT
  5
B7
330
AE
100
AcDbEntity
  8
Defpoints
 62
     0
100
AcDbPoint
 10
108.942503434172
 20
36.16120804555399
 30
0.0
  0
ENDBLK
  5
B9
330
AE
100
AcDbEntity
  8
0
100
AcDbBlockEnd
  0
BLOCK
  5
C6
330
BC
100
AcDbEntity
  8
0
100
AcDbBlockBegin
  2
*D3
 70
     1
 10
0.0
 20
0.0
 30
0.0
  3
*D3
  1

  0
LINE
  5
BD
330
BC
100
AcDbEntity
  8
0
  6
Continuous
 62
     7
370
    -2
100
AcDbLine
 10
49.878833917034
 20
63.645608186603
 30
0.0
 11
49.878833917034
 21
45.498092082712
 31
0.0
  0
LINE
  5
BE
330
BC
100
AcDbEntity
  8
0
  6
Continuous
 62
     7
370
    -2
100
AcDbLine
 10
104.369829536066
 20
63.264552273183
 30
0.0
 11
104.369829536066
 21
45.498092082712
 31
0.0
  0
LINE
  5
BF
330
BC
100
AcDbEntity
  8
0
  6
Continuous
 62
     7
370
    -2
100
AcDbLine
 10
52.878833917034
 20
47.498092082712
 30
0.0
 11
101.369829536066
 21
47.498092082712
 31
0.0
  0
SOLID
  5
C0
330
BC
100
AcDbEntity
  8
0
 62
     7
100
AcDbTrace
 10
52.878833917034
 20
47.998092082712
 30
0.0
 11
52.878833917034
 21
46.998092082712
 31
0.0
 12
49.878833917034
 22
47.498092082712
 32
0.0
 13
49.878833917034
 23
47.498092082712
 33
0.0
  0
SOLID
  5
C1
330
BC
100
AcDbEntity
  8
0
 62
     7
100
AcDbTrace
 10
101.369829536066
 20
46.998092082712
 30
0.0
 11
101.369829536066
 21
47.998092082712
 31
0.0
 12
104.369829536066
 22
47.498092082712
 32
0.0
 13
104.369829536066
 23
47.498092082712
 33
0.0
  0
MTEXT
  5
C2
330
BC
100
AcDbEntity
  8
0
 62
     7
100
AcDbMText
 10
77.12433172655
 20
51.529342082712
 30
0.0
 40
4.0625
 41
0.0
 46
0.0
 71
     5
 72
     1
  1
\A1;c
  7
_TCW_TXTSTY_3
 73
     1
 44
1.0
  0
POINT
  5
C3
330
BC
100
AcDbEntity
  8
Defpoints
 62
     0
100
AcDbPoint
 10
49.878833917034
 20
64.645608186603
 30
0.0
  0
POINT
  5
C4
330
BC
100
AcDbEntity
  8
Defpoints
 62
     0
100
AcDbPoint
 10
104.369829536066
 20
64.264552273183
 30
0.0
  0
POINT
  5
C5
330
BC
100
AcDbEntity
  8
Defpoints
 62
     0
100
AcDbPoint
 10
104.369829536066
 20
47.498092082712
 30
0.0
  0
ENDBLK
  5
C7
330
BC
100
AcDbEntity
  8
0
100
AcDbBlockEnd
  0
ENDSEC
  0
SECTION
  2
ENTITIES
  0
LINE
  5
7D
330
1F
100
AcDbEntity
  8
0
  6
Continuous
 62
     7
 48
0.2000000029802322
370
     0
100
AcDbLine
 10
49.894069430045
 20
64.357255411508
 30
0.0
 11
104.894069430045
 21
64.357255411508
 31
0.0
  0
LINE
  5
7E
330
1F
100
AcDbEntity
  8
0
  6
Continuous
 62
     7
 48
0.2000000029802322
370
     0
100
AcDbLine
 10
49.894069430045
 20
152.357255411508
 30
0.0
 11
104.894069430045
 21
152.357255411508
 31
0.0
  0
LWPOLYLINE
  5
7F
330
1F
100
AcDbEntity
  8
0
  6
Continuous
 62
     7
 48
0.2000000029802322
370
     0
100
AcDbPolyline
 90
       41
 70
   128
 43
0.0
 10
49.894069430045
 20
152.357255411508
 10
49.40050403996199
 20
150.1880609337616
 10
48.93178496605444
 20
148.0120266547315
 10
48.48796246095443
 20
145.8295885432936
 10
48.06908677729417
 20
143.6411825683243
 10
47.67520816770573
 20
141.4472446986996
 10
47.30637688482128
 20
139.2482109032957
 10
46.96264318127298
 20
137.0445171509887
 10
46.64405730969293
 20
134.8365994106548
 10
46.35066952271326
 20
132.62489365117
 10
46.08253007296611
 20
130.4098358414105
 10
45.83968921308366
 20
128.1918619502525
 10
45.62219719569801
 20
125.9714079465721
 10
45.43010427344128
 20
123.7489097992453
 10
45.26346069894564
 20
121.5248034771485
 10
45.1223167248432
 20
119.2995249491576
 10
45.00672260376612
 20
117.0735101841489
 10
44.91672858834653
 20
114.8471951509984
 10
44.85238493121654
 20
112.6210158185824
 10
44.81374188500833
 20
110.3954081557768
 10
44.800849702354
 20
108.170808131458
 10
44.8137445780505
 20
105.964723830019
 10
44.85239513642899
 20
103.7576236504337
 10
44.91675027442295
 20
101.5499471981026
 10
45.00675888896591
 20
99.34213407842623
 10
45.12236987699131
 20
97.1346238968052
 10
45.26353213543268
 20
94.92785625864003
 10
45.43019456122354
 20
92.72227076933136
 10
45.62230605129734
 20
90.51830703427967
 10
45.83981550258758
 20
88.31640465888552
 10
46.08267181202774
 20
86.11700324854948
 10
46.35082387655137
 20
83.92054240867215
 10
46.64422059309192
 20
81.72746174465402
 10
46.96281085858288
 20
79.53820086189569
 10
47.30654356995777
 20
77.35319936579765
 10
47.67536762415007
 20
75.17289686176056
 10
48.06923191809327
 20
72.9977329551849
 10
48.48808534872087
 20
70.82814725147128
 10
48.93187681296636
 20
68.6645793560202
 10
49.40055520776324
 20
66.50746887423225
 10
49.894069430045
 20
64.357255411508
  0
LWPOLYLINE
  5
80
330
1F
100
AcDbEntity
  8
0
  6
Continuous
 62
     7
 48
0.2000000029802322
370
     0
100
AcDbPolyline
 90
       41
 70
   128
 43
0.0
 10
104.894069430045
 20
64.357255411508
 10
105.3697292688302
 20
66.5103562649422
 10
105.8214191718898
 20
68.6698623954173
 10
106.2490934122805
 20
70.83536549855909
 10
106.6527062630588
 20
73.0064572699936
 10
107.0322119972811
 20
75.18272940534658
 10
107.3875648880041
 20
77.36377360024396
 10
107.7187192082842
 20
79.54918155031162
 10
108.0256292311781
 20
81.73854495117541
 10
108.3082492297422
 20
83.93145549846119
 10
108.5665334770331
 20
86.12750488779486
 10
108.8004362461074
 20
88.32628481480232
 10
109.0099118100215
 20
90.52738697510942
 10
109.194914441832
 20
92.73040306434201
 10
109.3553984145954
 20
94.93492477812599
 10
109.4913180013683
 20
97.14054381208726
 10
109.6026274752073
 20
99.34685186185162
 10
109.6892811091688
 20
101.553440623045
 10
109.7512331763094
 20
103.7599017912933
 10
109.7884379496856
 20
105.9658270622223
 10
109.800849702354
 20
108.170808131458
 10
109.7884403611182
 20
110.3943140943878
 10
109.7512423143697
 20
112.618756578529
 10
109.689300527547
 20
114.8437306619443
 10
109.6026599660886
 20
117.0688314226961
 10
109.4913655954327
 20
119.2936539388469
 10
109.3554623810179
 20
121.5177932884593
 10
109.1949952882827
 20
123.7408445495958
 10
109.0100092826653
 20
125.9624028003189
 10
108.8005493296043
 20
128.1820631186911
 10
108.5666603945381
 20
130.399420582775
 10
108.3083874429052
 20
132.614070270633
 10
108.0257754401439
 20
134.8256072603277
 10
107.7188693516926
 20
137.0336266299216
 10
107.3877141429899
 20
139.2377234574772
 10
107.0323547794742
 20
141.4374928210571
 10
106.6528362265839
 20
143.6325297987237
 10
106.2492034497574
 20
145.8224294685396
 10
105.8215014144331
 20
148.0067869085672
 10
105.3697750860495
 20
150.1851971968692
 10
104.894069430045
 20
152.357255411508
  0
LWPOLYLINE
  5
81
330
1F
100
AcDbEntity
  8
0
  6
Continuous
 62
     7
 48
0.2000000029802322
370
     0
100
AcDbPolyline
 90
       41
 70
   128
 43
0.0
 10
102.569937563297
 20
64.726579881612
 10
103.0455974020822
 20
66.86903259137412
 10
103.4972873051419
 20
69.01785890092891
 10
103.9249615455325
 20
71.17265252516839
 10
104.3285743963108
 20
73.33300717898457
 10
104.7080801305331
 20
75.49851657726941
 10
105.0634330212561
 20
77.668774434915
 10
105.3945873415362
 20
79.8433744668133
 10
105.7014973644301
 20
82.02191038785635
 10
105.9841173629942
 20
84.2039759129361
 10
106.2424016102851
 20
86.38916475694461
 10
106.4763043793594
 20
88.5770706347739
 10
106.6857799432735
 20
90.76728726131594
 10
106.870782575084
 20
92.95940835146277
 10
107.0312665478474
 20
95.15302762010637
 10
107.1671861346203
 20
97.34773878213878
 10
107.2784956084593
 20
99.54313555245197
 10
107.3651492424208
 20
101.738811645938
 10
107.4271013095614
 20
103.9343607774888
 10
107.4643060829376
 20
106.1293766619965
 10
107.476717835606
 20
108.323453014353
 10
107.4643084943702
 20
110.5359626456846
 10
107.4271104476217
 20
112.7494041666692
 10
107.365168660799
 20
114.9633746579077
 10
107.2785280993406
 20
117.177471200001
 10
107.1672337286847
 20
119.3912908735498
 10
107.0313305142699
 20
121.6044307591551
 10
106.8708634215347
 20
123.8164879374176
 10
106.6858774159173
 20
126.0270594889382
 10
106.4764174628563
 20
128.2357424943177
 10
106.2425285277901
 20
130.442134034157
 10
105.9842555761572
 20
132.6458311890569
 10
105.7016435733959
 20
134.8464310396183
 10
105.3947374849447
 20
137.0435306664419
 10
105.063582276242
 20
139.2367271501287
 10
104.7082229127262
 20
141.4256175712795
 10
104.3287043598359
 20
143.609799010495
 10
103.9250715830094
 20
145.7888685483762
 10
103.4973695476851
 20
147.9624232655239
 10
103.0456432193015
 20
150.1300602425389
 10
102.569937563297
 20
152.291376560022
  0
LINE
  5
82
330
1F
100
AcDbEntity
  8
0
  6
Continuous
 62
     7
 48
0.2000000029802322
370
     0
100
AcDbLine
 10
76.962767254643
 20
152.154147198333
 30
0.0
 11
76.962767254643
 21
64.253579993636
 31
0.0
  0
LINE
  5
83
330
1F
100
AcDbEntity
  8
0
  6
Continuous
 62
     7
 48
0.2000000029802322
370
     0
100
AcDbLine
 10
76.962767254643
 20
149.449514361265
 30
0.0
 11
103.671016520685
 21
149.449514361265
 31
0.0
  0
LINE
  5
84
330
1F
100
AcDbEntity
  8
0
  6
Continuous
 62
     7
 48
0.2000000029802322
370
     0
100
AcDbLine
 10
76.7092111194
 20
66.561232323151
 30
0.0
 11
103.079382286917
 21
66.561232323151
 31
0.0
  0
LINE
  5
85
330
1F
100
AcDbEntity
  8
0
  6
Continuous
 62
     7
 48
0.2000000029802322
370
     0
100
AcDbLine
 10
77.047290236932
 20
69.096825704643
 30
0.0
 11
103.586500963215
 21
69.096825704643
 31
0.0
  0
LINE
  5
86
330
1F
100
AcDbEntity
  8
0
  6
Continuous
 62
     7
 48
0.2000000029802322
370
     0
100
AcDbLine
 10
77.216332752393
 20
147.0030447878
 30
0.0
 11
103.924582018436
 21
147.0030447878
 31
0.0
  0
LINE
  5
87
330
1F
100
AcDbEntity
  8
0
  6
Continuous
 62
     7
 48
0.2000000029802322
370
     0
100
AcDbLine
 10
48.817683922987
 20
146.905595057983
 30
0.0
 11
76.202092443101
 21
146.905595057983
 31
0.0
  0
LINE
  5
88
330
1F
100
AcDbEntity
  8
0
  6
Continuous
 62
     7
 48
0.2000000029802322
370
     0
100
AcDbLine
 10
47.465367452858
 20
140.313052266104
 30
0.0
 11
76.878250678166
 21
140.313052266104
 31
0.0
  0
LINE
  5
89
330
1F
100
AcDbEntity
  8
0
  6
Continuous
 62
     7
 48
0.2000000029802322
370
     0
100
AcDbLine
 10
46.620169659027
 20
134.565707268055
 30
0.0
 11
76.878250678166
 21
134.565707268055
 31
0.0
  0
LINE
  5
8A
330
1F
100
AcDbEntity
  8
0
  6
Continuous
 62
     7
 48
0.2000000029802322
370
     0
100
AcDbLine
 10
49.071248012417
 20
70.27204239581
 30
0.0
 11
77.131814767596
 21
70.27204239581
 31
0.0
  0
LINE
  5
8B
330
1F
100
AcDbEntity
  8
0
  6
Continuous
 62
     7
 48
0.2000000029802322
370
     0
100
AcDbLine
 10
47.380852424756
 20
76.019387393859
 30
0.0
 11
77.131814767596
 21
76.019387393859
 31
0.0
  0
LINE
  5
8C
330
1F
100
AcDbEntity
  8
0
  6
Continuous
 62
     7
 48
0.2000000029802322
370
     0
100
AcDbLine
 10
46.704694189691
 20
81.090574156843
 30
0.0
 11
76.455656532531
 21
81.090574156843
 31
0.0
  0
LINE
  5
8D
330
1F
100
AcDbEntity
  8
0
  6
Continuous
 62
     7
 48
0.2000000029802322
370
     0
100
AcDbLine
 10
45.690456837094
 20
88.528314742553
 30
0.0
 11
76.793735650063
 21
88.528314742553
 31
0.0
  0
LINE
  5
8E
330
1F
100
AcDbEntity
  8
0
  6
Continuous
 62
     7
 48
0.2000000029802322
370
     0
100
AcDbLine
 10
45.690456837094
 20
124.702780318506
 30
0.0
 11
76.793735650063
 21
124.702780318506
 31
0.0
  0
LINE
  5
8F
330
1F
100
AcDbEntity
  8
0
  6
Continuous
 62
     7
 48
0.2000000029802322
370
     0
100
AcDbLine
 10
45.605937054843
 20
94.275662373919
 30
0.0
 11
77.554414162541
 21
94.275662373919
 31
0.0
  0
LINE
  5
90
330
1F
100
AcDbEntity
  8
0
  6
Continuous
 62
     7
 48
0.2000000029802322
370
     0
100
AcDbLine
 10
45.352377719589
 20
118.955437160755
 30
0.0
 11
77.131814767623
 21
118.955437160755
 31
0.0
  0
CIRCLE
  5
91
330
1F
100
AcDbEntity
  8
0
  6
Continuous
 62
     7
 48
0.2000000029802322
370
     0
100
AcDbCircle
 10
76.878260126063
 20
84.024051988949
 30
0.0
 40
2.461253126906001
  0
LINE
  5
92
330
1F
100
AcDbEntity
  8
0
  6
Continuous
 62
     7
 48
0.2000000029802322
370
     0
100
AcDbLine
 10
75.018823161133
 20
82.502696086029
 30
0.0
 11
75.018823161133
 21
76.417271970449
 31
0.0
  0
LINE
  5
93
330
1F
100
AcDbEntity
  8
0
  6
Continuous
 62
     7
 48
0.2000000029802322
370
     0
100
AcDbLine
 10
75.018823161133
 20
76.417271970449
 30
0.0
 11
79.07577257152
 21
76.417271970449
 31
0.0
  0
LINE
  5
94
330
1F
100
AcDbEntity
  8
0
  6
Continuous
 62
     7
 48
0.2000000029802322
370
     0
100
AcDbLine
 10
78.779953976099
 20
76.501795514382
 30
0.0
 11
78.779953976099
 21
82.671732780771
 31
0.0
  0
LINE
  5
95
330
1F
100
AcDbEntity
  8
0
  6
Continuous
 62
     7
 48
0.2000000029802322
370
     0
100
AcDbLine
 10
72.440971329006
 20
87.996481745929
 30
0.0
 11
77.596677871373
 21
87.996481745929
 31
0.0
  0
LINE
  5
96
330
1F
100
AcDbEntity
  8
0
  6
Continuous
 62
     7
 48
0.2000000029802322
370
     0
100
AcDbLine
 10
77.596677871373
 20
88.081001525312
 30
0.0
 11
77.596677871373
 21
86.982244393332
 31
0.0
  0
LINE
  5
97
330
1F
100
AcDbEntity
  8
0
  6
Continuous
 62
     7
 48
0.2000000029802322
370
     0
100
AcDbLine
 10
77.596677871373
 20
86.897724613949
 30
0.0
 11
72.694530667155
 21
86.897724613949
 31
0.0
  0
LINE
  5
98
330
1F
100
AcDbEntity
  8
0
  6
Continuous
 62
     7
 48
0.2000000029802322
370
     0
100
AcDbLine
 10
72.610010887772
 20
86.897724613949
 30
0.0
 11
72.610010887772
 21
87.996481745929
 31
0.0
  0
LINE
  5
99
330
1F
100
AcDbEntity
  8
0
  6
Continuous
 62
     7
 48
0.2000000029802322
370
     0
100
AcDbLine
 10
40.108890208482
 20
154.478985345558
 30
0.0
 11
40.108890208482
 21
172.164388806788
 31
0.0
  0
LINE
  5
9A
330
1F
100
AcDbEntity
  8
0
  6
Continuous
 62
     7
 48
0.2000000029802322
370
     0
100
AcDbLine
 10
33.416600291145
 20
172.16439165165
 30
0.0
 11
33.416600291145
 21
41.569911914296
 31
0.0
  0
LINE
  5
9B
330
1F
100
AcDbEntity
  8
0
  6
Continuous
 62
     7
 48
0.2000000029802322
370
     0
100
AcDbLine
 10
40.275606427234
 20
40.770924458243
 30
0.0
 11
40.275606427234
 21
172.16438437694
 31
0.0
  0
LEADER
  5
9D
330
1F
100
AcDbEntity
  8
0
  6
Continuous
 62
     7
370
     0
100
AcDbLeader
  3
標準寸法
 76
     5
 10
79.566550544669
 20
84.788535403435
 30
0.0
 10
92.32698453043
 20
111.311652320185
 30
0.0
 10
116.389517189294
 20
111.311652320185
 30
0.0
 10
119.389517189294
 20
111.311652320185
 30
0.0
 10
153.889517189294
 20
111.311652320185
 30
0.0
1001
ACAD
1000
DSTYLE
1002
{
1070
   179
1070
     2
1070
   143
1040
1.0
1070
   148
1040
0.01
1070
   286
1070
     8
1070
    41
1040
3.0
1070
   176
1070
     7
1070
   177
1070
     7
1070
   178
1070
     7
1070
   271
1070
     2
1070
    43
1040
7.5
1070
    44
1040
2.0
1070
    42
1040
1.0
1070
   147
1040
2.0
1070
    45
1040
2.0
1070
   272
1070
     2
1070
   172
1070
     1
1070
   340
1005
9C
1070
   140
1040
4.0625
1070
    78
1070
     8
1002
}
  0
DIMENSION
  5
9E
330
1F
100
AcDbEntity
  8
0
  6
Continuous
 62
     7
100
AcDbDimension
  2
*D1
 10
180.777369307605
 20
63.83045923361599
 30
0.0
 11
180.777369307605
 21
108.032944458295
 31
0.0
 70
    32
  1
a
 71
     5
 42
88.404970449358
 73
     0
 74
     0
 75
     0
  3
標準寸法
100
AcDbAlignedDimension
 13
104.453491901236
 23
152.235429682974
 33
0.0
 14
104.047513829925
 24
63.830459233616
 34
0.0
 50
90.0
100
AcDbRotatedDimension
1001
ACAD
1000
DSTYLE
1002
{
1070
   179
1070
     2
1070
   143
1040
1.0
1070
   148
1040
0.01
1070
   286
1070
     8
1070
    41
1040
3.0
1070
   176
1070
     7
1070
   177
1070
     7
1070
   178
1070
     7
1070
   271
1070
     2
1070
    43
1040
7.5
1070
    44
1040
2.0
1070
    42
1040
1.0
1070
   147
1040
2.0
1070
    45
1040
2.0
1070
    77
1070
     1
1070
   272
1070
     2
1070
   172
1070
     1
1070
   340
1005
9C
1070
   140
1040
4.0625
1070
    78
1070
     8
1002
}
  0
DIMENSION
  5
AD
330
1F
100
AcDbEntity
  8
0
  6
Continuous
 62
     7
100
AcDbDimension
  2
*D2
 10
108.942503434172
 20
36.16120804555399
 30
0.0
 11
76.922052498015
 21
40.19245804555399
 31
0.0
 70
    32
  1
b
 71
     5
 42
64.040901872314
 73
     0
 74
     0
 75
     0
  3
標準寸法
100
AcDbAlignedDimension
 13
44.901601561858
 23
109.938223942886
 33
0.0
 14
108.942503434172
 24
109.53285572367
 34
0.0
100
AcDbRotatedDimension
1001
ACAD
1000
DSTYLE
1002
{
1070
   179
1070
     2
1070
   143
1040
1.0
1070
   148
1040
0.01
1070
   286
1070
     8
1070
    41
1040
3.0
1070
   176
1070
     7
1070
   177
1070
     7
1070
   178
1070
     7
1070
   271
1070
     2
1070
    43
1040
7.5
1070
    44
1040
2.0
1070
    42
1040
1.0
1070
   147
1040
2.0
1070
    45
1040
2.0
1070
    77
1070
     1
1070
   272
1070
     2
1070
   172
1070
     1
1070
   340
1005
AC
1070
   140
1040
4.0625
1070
    78
1070
     8
1002
}
  0
TEXT
  5
BA
330
1F
100
AcDbEntity
  8
0
  6
Continuous
 62
     7
100
AcDbText
 10
49.15616202322
 20
23.37751611225839
 30
0.0
 40
4.062499850988388
  1
樽の寸法については３ｃｍ前後の誤差があります。
  7
_TCW_TXTSTY_3
 11
49.15616202322
 21
27.44001596324678
 31
0.0
100
AcDbText
 73
     3
  0
DIMENSION
  5
BB
330
1F
100
AcDbEntity
  8
0
  6
Continuous
 62
     7
100
AcDbDimension
  2
*D3
 10
104.369829536066
 20
47.498092082712
 30
0.0
 11
77.12433172655
 21
51.529342082712
 31
0.0
 70
    32
  1
c
 71
     5
 42
54.49099561903201
 73
     0
 74
     0
 75
     0
  3
標準寸法
100
AcDbAlignedDimension
 13
49.878833917034
 23
64.645608186603
 33
0.0
 14
104.369829536066
 24
64.264552273183
 34
0.0
100
AcDbRotatedDimension
1001
ACAD
1000
DSTYLE
1002
{
1070
   179
1070
     2
1070
   143
1040
1.0
1070
   148
1040
0.01
1070
   286
1070
     8
1070
    41
1040
3.0
1070
   176
1070
     7
1070
   177
1070
     7
1070
   178
1070
     7
1070
   271
1070
     2
1070
    43
1040
7.5
1070
    44
1040
2.0
1070
    42
1040
1.0
1070
   147
1040
2.0
1070
    45
1040
2.0
1070
    77
1070
     1
1070
   272
1070
     2
1070
   172
1070
     1
1070
   340
1005
AC
1070
   140
1040
4.0625
1070
    78
1070
     8
1002
}
  0
LWPOLYLINE
  5
C8
330
1F
100
AcDbEntity
  8
0
  6
DOT
 62
     7
 48
0.2000000029802322
370
     0
100
AcDbPolyline
 90
        4
 70
   129
 43
0.0
 10
46.513330159741
 20
64.612246791867
 10
111.920753612579
 20
64.612246791867
 10
111.920753612579
 20
49.694794839768
 10
46.513330159741
 20
49.694794839768
  0
LWPOLYLINE
  5
C9
330
1F
100
AcDbEntity
  8
0
  6
Continuous
 62
     7
 48
0.2000000029802322
370
     0
100
AcDbPolyline
 90
        4
 70
   129
 43
0.0
 10
-134.27992065226
 20
237.306345593288
 10
197.543569176089
 20
237.306345593288
 10
197.543569176089
 20
15.814166132865
 10
-134.27992065226
 20
15.814166132865
  0
MTEXT
  5
CC
102
{ACAD_XDICTIONARY
360
CA
102
}
330
1F
100
AcDbEntity
  8
0
  6
Continuous
 62
     7
100
AcDbMText
 10
49.635522988312
 20
23.29151986957186
 30
0.0
 40
4.062499850988388
 41
80.0
 46
0.0
 71
     1
 72
     1
  1
トイに近接して樽を設置すること。\P
  7
_TCW_TXTSTY_3
 73
     1
 44
1.0
  0
LEADER
  5
CD
330
1F
100
AcDbEntity
  8
0
  6
Continuous
 62
     7
370
     0
100
AcDbLeader
  3
標準寸法
 76
     5
 10
86.263474967558
 20
54.889602790419
 30
0.0
 10
109.868386229045
 20
42.861001284141
 30
0.0
 10
134.278010374447
 20
42.861001284141
 30
0.0
 10
137.278010374447
 20
42.861001284141
 30
0.0
 10
169.278010374447
 20
42.861001284141
 30
0.0
1001
ACAD
1000
DSTYLE
1002
{
1070
   179
1070
     2
1070
   143
1040
1.0
1070
   148
1040
0.01
1070
   286
1070
     8
1070
    41
1040
3.0
1070
   176
1070
     7
1070
   177
1070
     7
1070
   178
1070
     7
1070
   271
1070
     2
1070
    43
1040
7.5
1070
    44
1040
2.0
1070
    42
1040
1.0
1070
   147
1040
2.0
1070
    45
1040
2.0
1070
   272
1070
     2
1070
   172
1070
     1
1070
   340
1005
AC
1070
   140
1040
4.0625
1070
    78
1070
     8
1002
}
  0
CIRCLE
  5
CE
330
1F
100
AcDbEntity
  8
0
  6
Continuous
 62
     7
 48
0.2000000029802322
370
     0
100
AcDbCircle
 10
-42.142621245097
 20
113.364345216914
 30
0.0
 40
32.500000895599
  0
CIRCLE
  5
CF
330
1F
100
AcDbEntity
  8
0
  6
Continuous
 62
     7
 48
0.2000000029802322
370
     0
100
AcDbCircle
 10
-42.142621471681
 20
113.745402379787
 30
0.0
 40
27.499999636687
  0
LINE
  5
D0
330
1F
100
AcDbEntity
  8
0
  6
Continuous
 62
     7
 48
0.2000000029802322
370
     0
100
AcDbLine
 10
-41.389884899333
 20
83.271840037903
 30
0.0
 11
-41.389884899333
 21
77.174945524155
 31
0.0
  0
LINE
  5
D1
330
1F
100
AcDbEntity
  8
0
  6
Continuous
 62
     7
 48
0.2000000029802322
370
     0
100
AcDbLine
 10
-43.889884899333
 20
77.174945524155
 30
0.0
 11
-43.889884899333
 21
83.271840037903
 31
0.0
  0
POLYLINE
  5
D2
330
1F
100
AcDbEntity
  8
0
  6
Continuous
 62
     7
 48
0.2000000029802322
370
     0
100
AcDb2dPolyline
 66
     1
 10
0.0
 20
0.0
 30
0.0
 70
   132
 75
     6
  0
VERTEX
  5
D4
330
D2
100
AcDbEntity
  8
0
  6
Continuous
 62
     7
 48
0.2000000029802322
100
AcDbVertex
100
AcDb2dVertex
 10
-43.925943984073
 20
76.76666905338
 30
0.0
 70
    16
  0
VERTEX
  5
D5
330
D2
100
AcDbEntity
  8
0
  6
Continuous
 62
     7
 48
0.2000000029802322
100
AcDbVertex
100
AcDb2dVertex
 10
-43.481378759112
 20
76.267666105336
 30
0.0
 70
    16
  0
VERTEX
  5
D6
330
D2
100
AcDbEntity
  8
0
  6
Continuous
 62
     7
 48
0.2000000029802322
100
AcDbVertex
100
AcDb2dVertex
 10
-42.59224830919
 20
75.269660209247
 30
0.0
 70
    16
  0
VERTEX
  5
D7
330
D2
100
AcDbEntity
  8
0
  6
Continuous
 62
     7
 48
0.2000000029802322
100
AcDbVertex
100
AcDb2dVertex
 10
-41.703117859268
 20
76.539849531542
 30
0.0
 70
    16
  0
VERTEX
  5
D8
330
D2
100
AcDbEntity
  8
0
  6
Continuous
 62
     7
 48
0.2000000029802322
100
AcDbVertex
100
AcDb2dVertex
 10
-41.258552634308
 20
77.174944192689
 30
0.0
 70
    16
  0
VERTEX
  5
D9
330
D2
100
AcDbEntity
  8
0
  6
Continuous
 62
     7
 48
0.2000000029802322
100
AcDbVertex
100
AcDb2dVertex
 10
-43.925943984073
 20
76.76666905338
 30
0.0
 70
     8
  0
VERTEX
  5
DA
330
D2
100
AcDbEntity
  8
0
  6
Continuous
 62
     7
 48
0.2000000029802322
100
AcDbVertex
100
AcDb2dVertex
 10
-43.85925920032885
 20
76.69188949227397
 30
0.0
 70
     8
  0
VERTEX
  5
DB
330
D2
100
AcDbEntity
  8
0
  6
Continuous
 62
     7
 48
0.2000000029802322
100
AcDbVertex
100
AcDb2dVertex
 10
-43.7925744165847
 20
76.61753521777139
 30
0.0
 70
     8
  0
VERTEX
  5
DC
330
D2
100
AcDbEntity
  8
0
  6
Continuous
 62
     7
 48
0.2000000029802322
100
AcDbVertex
100
AcDb2dVertex
 10
-43.72588963284055
 20
76.54403151647568
 30
0.0
 70
     8
  0
VERTEX
  5
DD
330
D2
100
AcDbEntity
  8
0
  6
Continuous
 62
     7
 48
0.2000000029802322
100
AcDbVertex
100
AcDb2dVertex
 10
-43.6592048490964
 20
76.47180367499031
 30
0.0
 70
     8
  0
VERTEX
  5
DE
330
D2
100
AcDbEntity
  8
0
  6
Continuous
 62
     7
 48
0.2000000029802322
100
AcDbVertex
100
AcDb2dVertex
 10
-43.59252006535225
 20
76.40127697991872
 30
0.0
 70
     8
  0
VERTEX
  5
DF
330
D2
100
AcDbEntity
  8
0
  6
Continuous
 62
     7
 48
0.2000000029802322
100
AcDbVertex
100
AcDb2dVertex
 10
-43.5258352816081
 20
76.33287671786437
 30
0.0
 70
     8
  0
VERTEX
  5
E0
330
D2
100
AcDbEntity
  8
0
  6
Continuous
 62
     7
 48
0.2000000029802322
100
AcDbVertex
100
AcDb2dVertex
 10
-43.45915049786394
 20
76.2670281754307
 30
0.0
 70
     8
  0
VERTEX
  5
E1
330
D2
100
AcDbEntity
  8
0
  6
Continuous
 62
     7
 48
0.2000000029802322
100
AcDbVertex
100
AcDb2dVertex
 10
-43.39246571411979
 20
76.20415663922114
 30
0.0
 70
     8
  0
VERTEX
  5
E2
330
D2
100
AcDbEntity
  8
0
  6
Continuous
 62
     7
 48
0.2000000029802322
100
AcDbVertex
100
AcDb2dVertex
 10
-43.32578093037565
 20
76.14468739583914
 30
0.0
 70
     8
  0
VERTEX
  5
E3
330
D2
100
AcDbEntity
  8
0
  6
Continuous
 62
     7
 48
0.2000000029802322
100
AcDbVertex
100
AcDb2dVertex
 10
-43.2590961466315
 20
76.08904573188819
 30
0.0
 70
     8
  0
VERTEX
  5
E4
330
D2
100
AcDbEntity
  8
0
  6
Continuous
 62
     7
 48
0.2000000029802322
100
AcDbVertex
100
AcDb2dVertex
 10
-43.19241136288735
 20
76.03765693397169
 30
0.0
 70
     8
  0
VERTEX
  5
E5
330
D2
100
AcDbEntity
  8
0
  6
Continuous
 62
     7
 48
0.2000000029802322
100
AcDbVertex
100
AcDb2dVertex
 10
-43.1257265791432
 20
75.99094628869311
 30
0.0
 70
     8
  0
VERTEX
  5
E6
330
D2
100
AcDbEntity
  8
0
  6
Continuous
 62
     7
 48
0.2000000029802322
100
AcDbVertex
100
AcDb2dVertex
 10
-43.05904179539905
 20
75.94933908265587
 30
0.0
 70
     8
  0
VERTEX
  5
E7
330
D2
100
AcDbEntity
  8
0
  6
Continuous
 62
     7
 48
0.2000000029802322
100
AcDbVertex
100
AcDb2dVertex
 10
-42.9923570116549
 20
75.91326060246345
 30
0.0
 70
     8
  0
VERTEX
  5
E8
330
D2
100
AcDbEntity
  8
0
  6
Continuous
 62
     7
 48
0.2000000029802322
100
AcDbVertex
100
AcDb2dVertex
 10
-42.92567222791075
 20
75.8831361347193
 30
0.0
 70
     8
  0
VERTEX
  5
E9
330
D2
100
AcDbEntity
  8
0
  6
Continuous
 62
     7
 48
0.2000000029802322
100
AcDbVertex
100
AcDb2dVertex
 10
-42.8589874441666
 20
75.85939096602685
 30
0.0
 70
     8
  0
VERTEX
  5
EA
330
D2
100
AcDbEntity
  8
0
  6
Continuous
 62
     7
 48
0.2000000029802322
100
AcDbVertex
100
AcDb2dVertex
 10
-42.79230266042245
 20
75.84245038298954
 30
0.0
 70
     8
  0
VERTEX
  5
EB
330
D2
100
AcDbEntity
  8
0
  6
Continuous
 62
     7
 48
0.2000000029802322
100
AcDbVertex
100
AcDb2dVertex
 10
-42.7256178766783
 20
75.83273967221082
 30
0.0
 70
     8
  0
VERTEX
  5
EC
330
D2
100
AcDbEntity
  8
0
  6
Continuous
 62
     7
 48
0.2000000029802322
100
AcDbVertex
100
AcDb2dVertex
 10
-42.65893309293416
 20
75.83068412029417
 30
0.0
 70
     8
  0
VERTEX
  5
ED
330
D2
100
AcDbEntity
  8
0
  6
Continuous
 62
     7
 48
0.2000000029802322
100
AcDbVertex
100
AcDb2dVertex
 10
-42.59224830919
 20
75.83670901384299
 30
0.0
 70
     8
  0
VERTEX
  5
EE
330
D2
100
AcDbEntity
  8
0
  6
Continuous
 62
     7
 48
0.2000000029802322
100
AcDbVertex
100
AcDb2dVertex
 10
-42.52556352544585
 20
75.85109787725962
 30
0.0
 70
     8
  0
VERTEX
  5
EF
330
D2
100
AcDbEntity
  8
0
  6
Continuous
 62
     7
 48
0.2000000029802322
100
AcDbVertex
100
AcDb2dVertex
 10
-42.4588787417017
 20
75.87356718614174
 30
0.0
 70
     8
  0
VERTEX
  5
F0
330
D2
100
AcDbEntity
  8
0
  6
Continuous
 62
     7
 48
0.2000000029802322
100
AcDbVertex
100
AcDb2dVertex
 10
-42.39219395795755
 20
75.90369165388589
 30
0.0
 70
     8
  0
VERTEX
  5
F1
330
D2
100
AcDbEntity
  8
0
  6
Continuous
 62
     7
 48
0.2000000029802322
100
AcDbVertex
100
AcDb2dVertex
 10
-42.32550917421341
 20
75.94104599388865
 30
0.0
 70
     8
  0
VERTEX
  5
F2
330
D2
100
AcDbEntity
  8
0
  6
Continuous
 62
     7
 48
0.2000000029802322
100
AcDbVertex
100
AcDb2dVertex
 10
-42.25882439046926
 20
75.98520491954656
 30
0.0
 70
     8
  0
VERTEX
  5
F3
330
D2
100
AcDbEntity
  8
0
  6
Continuous
 62
     7
 48
0.2000000029802322
100
AcDbVertex
100
AcDb2dVertex
 10
-42.19213960672513
 20
76.03574314425617
 30
0.0
 70
     8
  0
VERTEX
  5
F4
330
D2
100
AcDbEntity
  8
0
  6
Continuous
 62
     7
 48
0.2000000029802322
100
AcDbVertex
100
AcDb2dVertex
 10
-42.12545482298099
 20
76.09223538141403
 30
0.0
 70
     8
  0
VERTEX
  5
F5
330
D2
100
AcDbEntity
  8
0
  6
Continuous
 62
     7
 48
0.2000000029802322
100
AcDbVertex
100
AcDb2dVertex
 10
-42.05877003923686
 20
76.15425634441671
 30
0.0
 70
     8
  0
VERTEX
  5
F6
330
D2
100
AcDbEntity
  8
0
  6
Continuous
 62
     7
 48
0.2000000029802322
100
AcDbVertex
100
AcDb2dVertex
 10
-41.99208525549274
 20
76.22138074666074
 30
0.0
 70
     8
  0
VERTEX
  5
F7
330
D2
100
AcDbEntity
  8
0
  6
Continuous
 62
     7
 48
0.2000000029802322
100
AcDbVertex
100
AcDb2dVertex
 10
-41.92540047174862
 20
76.2931833015427
 30
0.0
 70
     8
  0
VERTEX
  5
F8
330
D2
100
AcDbEntity
  8
0
  6
Continuous
 62
     7
 48
0.2000000029802322
100
AcDbVertex
100
AcDb2dVertex
 10
-41.85871568800452
 20
76.3692387224591
 30
0.0
 70
     8
  0
VERTEX
  5
F9
330
D2
100
AcDbEntity
  8
0
  6
Continuous
 62
     7
 48
0.2000000029802322
100
AcDbVertex
100
AcDb2dVertex
 10
-41.79203090426041
 20
76.44912172280654
 30
0.0
 70
     8
  0
VERTEX
  5
FA
330
D2
100
AcDbEntity
  8
0
  6
Continuous
 62
     7
 48
0.2000000029802322
100
AcDbVertex
100
AcDb2dVertex
 10
-41.72534612051633
 20
76.53240701598155
 30
0.0
 70
     8
  0
VERTEX
  5
FB
330
D2
100
AcDbEntity
  8
0
  6
Continuous
 62
     7
 48
0.2000000029802322
100
AcDbVertex
100
AcDb2dVertex
 10
-41.65866133677224
 20
76.61866931538069
 30
0.0
 70
     8
  0
VERTEX
  5
FC
330
D2
100
AcDbEntity
  8
0
  6
Continuous
 62
     7
 48
0.2000000029802322
100
AcDbVertex
100
AcDb2dVertex
 10
-41.59197655302817
 20
76.70748333440048
 30
0.0
 70
     8
  0
VERTEX
  5
FD
330
D2
100
AcDbEntity
  8
0
  6
Continuous
 62
     7
 48
0.2000000029802322
100
AcDbVertex
100
AcDb2dVertex
 10
-41.52529176928411
 20
76.79842378643751
 30
0.0
 70
     8
  0
VERTEX
  5
FE
330
D2
100
AcDbEntity
  8
0
  6
Continuous
 62
     7
 48
0.2000000029802322
100
AcDbVertex
100
AcDb2dVertex
 10
-41.45860698554007
 20
76.89106538488834
 30
0.0
 70
     8
  0
VERTEX
  5
FF
330
D2
100
AcDbEntity
  8
0
  6
Continuous
 62
     7
 48
0.2000000029802322
100
AcDbVertex
100
AcDb2dVertex
 10
-41.39192220179604
 20
76.98498284314947
 30
0.0
 70
     8
  0
VERTEX
  5
100
330
D2
100
AcDbEntity
  8
0
  6
Continuous
 62
     7
 48
0.2000000029802322
100
AcDbVertex
100
AcDb2dVertex
 10
-41.32523741805201
 20
77.07975087461753
 30
0.0
 70
     8
  0
VERTEX
  5
101
330
D2
100
AcDbEntity
  8
0
  6
Continuous
 62
     7
 48
0.2000000029802322
100
AcDbVertex
100
AcDb2dVertex
 10
-41.258552634308
 20
77.174944192689
 30
0.0
 70
     8
  0
SEQEND
  5
D3
330
D2
100
AcDbEntity
  8
0
  6
Continuous
 62
     7
 48
0.2000000029802322
370
     0
  0
LWPOLYLINE
  5
102
330
1F
100
AcDbEntity
  8
0
  6
Continuous
 62
     7
 48
0.2000000029802322
370
     0
100
AcDbPolyline
 90
        6
 70
   129
 43
0.0
 10
-42.782777728983
 20
77.174939977607
 10
-40.967755201979
 20
78.222843722158
 10
-40.967755201979
 20
80.318651211259
 10
-42.782777728983
 20
81.366554955809
 10
-44.597800255986
 20
80.318651211259
 10
-44.597800255986
 20
78.222843722158
  0
LINE
  5
103
330
1F
100
AcDbEntity
  8
0
  6
Continuous
 62
     7
 48
0.2000000029802322
370
     0
100
AcDbLine
 10
-42.782777728983
 20
79.747067350595
 30
0.0
 11
-48.498616335622
 21
79.747067350595
 31
0.0
  0
LINE
  5
104
330
1F
100
AcDbEntity
  8
0
  6
Continuous
 62
     7
 48
0.2000000029802322
370
     0
100
AcDbLine
 10
-48.403352358845
 20
79.747067350595
 30
0.0
 11
-48.403352358845
 21
78.984955536376
 31
0.0
  0
LINE
  5
105
330
1F
100
AcDbEntity
  8
0
  6
Continuous
 62
     7
 48
0.2000000029802322
370
     0
100
AcDbLine
 10
-48.403352358845
 20
78.984955536376
 30
0.0
 11
-42.87804170576
 21
78.984955536376
 31
0.0
  0
LINE
  5
106
330
1F
100
AcDbEntity
  8
0
  6
Continuous
 62
     7
 48
0.2000000029802322
370
     0
100
AcDbLine
 10
-42.782777728983
 20
79.080219513154
 30
0.0
 11
-42.782777728983
 21
79.842331327372
 31
0.0
  0
CIRCLE
  5
107
330
1F
100
AcDbEntity
  8
0
  6
Continuous
 62
     7
 48
0.2000000029802322
370
     0
100
AcDbCircle
 10
-57.16808801925727
 20
127.6296513484289
 30
0.0
 40
2.499999999999996
  0
LWPOLYLINE
  5
108
330
1F
100
AcDbEntity
  8
0
  6
Continuous
 62
     7
 48
0.2000000029802322
370
     0
100
AcDbPolyline
 90
        4
 70
   129
 43
0.0
 10
76.358407143325
 20
156.208363792887
 10
76.358407143325
 20
149.739705345621
 10
72.358407143325
 20
149.739705345621
 10
72.358407143325
 20
156.208363792887
  0
LINE
  5
109
330
1F
100
AcDbEntity
  8
0
  6
Continuous
 62
     7
 48
0.2000000029802322
370
     0
100
AcDbLine
 10
33.39023697731
 20
192.432851097574
 30
0.0
 11
33.39023697731
 21
210.976338646402
 31
0.0
  0
LINE
  5
10A
330
1F
100
AcDbEntity
  8
0
  6
Continuous
 62
     7
 48
0.2000000029802322
370
     0
100
AcDbLine
 10
39.427651528091
 20
192.432851097574
 30
0.0
 11
39.427651528091
 21
210.545094749918
 31
0.0
  0
LWPOLYLINE
  5
10B
330
1F
100
AcDbEntity
  8
0
  6
Continuous
 62
     7
 48
0.2000000029802322
370
     0
100
AcDbPolyline
 90
       10
 70
   129
 43
0.0
 10
47.40768814093565
 20
178.2179319009727
 10
53.32685575893681
 20
171.3881231109711
 10
55.22025292488383
 20
163.814534447183
 10
76.78965103981
 20
163.814534447183
 10
76.78965103981
 20
152.327168724527
 10
72.78965103981
 20
152.327168724527
 10
72.78965103981
 20
159.814534447183
 10
52.09714729926618
 20
159.814534447183
 10
49.67810550036919
 20
169.4907016427709
 10
44.38493180977634
 20
175.5982097473014
  0
LEADER
  5
10C
330
1F
100
AcDbEntity
  8
0
  6
Continuous
 62
     7
370
     0
100
AcDbLeader
  3
標準寸法
 76
     5
 10
54.236129062225
 20
158.774474869315
 30
0.0
 10
72.955403058991
 20
178.611694107597
 30
0.0
 10
116.384118731487
 20
178.611694107597
 30
0.0
 10
119.384118731487
 20
178.611694107597
 30
0.0
 10
188.884118731487
 20
178.611694107597
 30
0.0
1001
ACAD
1000
DSTYLE
1002
{
1070
   179
1070
     2
1070
   143
1040
1.0
1070
   148
1040
0.01
1070
   286
1070
     8
1070
    41
1040
3.0
1070
   176
1070
     7
1070
   177
1070
     7
1070
   178
1070
     7
1070
   271
1070
     2
1070
    43
1040
7.5
1070
    44
1040
2.0
1070
    42
1040
1.0
1070
   147
1040
2.0
1070
    45
1040
2.0
1070
   272
1070
     2
1070
   172
1070
     1
1070
   340
1005
AC
1070
   140
1040
4.0625
1070
    78
1070
     8
1002
}
  0
MTEXT
  5
10F
102
{ACAD_XDICTIONARY
360
10D
102
}
330
1F
100
AcDbEntity
  8
0
  6
Continuous
 62
     7
100
AcDbMText
 10
121.384118731487
 20
180.6116940837551
 30
0.0
 40
4.062499850988388
 41
0.0
 46
0.0
 71
     7
 72
     1
  1
\A1;接続ホース G：VP25　M：VP20
  7
_TCW_TXTSTY_3
 73
     1
 44
1.0
  0
LEADER
  5
110
330
1F
100
AcDbEntity
  8
0
  6
Continuous
 62
     7
370
     0
100
AcDbLeader
  3
標準寸法
 76
     5
 10
43.593531590498
 20
182.873295205781
 30
0.0
 10
61.627926774364
 20
198.349142882544
 30
0.0
 10
99.139468756805
 20
198.349142882544
 30
0.0
 10
102.139468756805
 20
198.349142882544
 30
0.0
 10
159.139468756805
 20
198.349142882544
 30
0.0
1001
ACAD
1000
DSTYLE
1002
{
1070
   179
1070
     2
1070
   143
1040
1.0
1070
   148
1040
0.01
1070
   286
1070
     8
1070
    41
1040
3.0
1070
   176
1070
     7
1070
   177
1070
     7
1070
   178
1070
     7
1070
   271
1070
     2
1070
    43
1040
7.5
1070
    44
1040
2.0
1070
    42
1040
1.0
1070
   147
1040
2.0
1070
    45
1040
2.0
1070
   272
1070
     2
1070
   172
1070
     1
1070
   340
1005
AC
1070
   140
1040
4.0625
1070
    78
1070
     8
1002
}
  0
MTEXT
  5
113
102
{ACAD_XDICTIONARY
360
111
102
}
330
1F
100
AcDbEntity
  8
0
  6
Continuous
 62
     7
100
AcDbMText
 10
104.139468756805
 20
200.3491428587021
 30
0.0
 40
4.062499850988388
 41
0.0
 46
0.0
 71
     7
 72
     1
  1
\A1;雨水コレクター（別図）
  7
_TCW_TXTSTY_3
 73
     1
 44
1.0
  0
TEXT
  5
114
330
1F
100
AcDbEntity
  8
0
  6
Continuous
 62
     7
100
AcDbText
 10
-69.039179621136
 20
24.2656546961144
 30
0.0
 40
4.062499850988388
  1
樽材質：ホワイトオーク。リサイクル品
  7
_TCW_TXTSTY_3
 11
-69.039179621136
 21
28.32815454710278
 31
0.0
100
AcDbText
 73
     3
  0
LWPOLYLINE
  5
117
102
{ACAD_XDICTIONARY
360
115
102
}
330
1F
100
AcDbEntity
  8
0
  6
Continuous
 62
     7
 48
0.2000000029802322
370
     0
100
AcDbPolyline
 90
        4
 70
   129
 43
0.0
 10
74.331118418217
 20
64.225242054593
 10
78.374373295213
 20
64.225242054593
 10
78.374373295213
 20
58.665766598723
 10
74.331118418217
 20
58.665766598723
  0
LWPOLYLINE
  5
11A
102
{ACAD_XDICTIONARY
360
118
102
}
330
1F
100
AcDbEntity
  8
0
  6
Continuous
 62
     7
 48
0.2000000029802322
370
     0
100
AcDbPolyline
 90
        4
 70
   129
 43
0.0
 10
73.825711558592
 20
62.203614616095
 10
80.901407593336
 20
62.203614616095
 10
80.901407593336
 20
60.687394037221
 10
73.825711558592
 20
60.687394037221
  0
LEADER
  5
11D
102
{ACAD_XDICTIONARY
360
11B
102
}
330
1F
100
AcDbEntity
  8
0
  6
Continuous
 62
     7
370
     0
100
AcDbLeader
  3
標準寸法
 76
     5
 10
73.825711558592
 20
61.192800896846
 30
0.0
 10
26.317466753884
 20
37.438678494492
 30
0.0
 10
-16.642116314203
 20
37.438678494492
 30
0.0
 10
-19.642116314203
 20
37.438678494492
 30
0.0
 10
-101.642116314203
 20
37.438678494492
 30
0.0
1001
ACAD
1000
DSTYLE
1002
{
1070
   179
1070
     2
1070
   143
1040
1.0
1070
   148
1040
0.01
1070
   286
1070
     8
1070
    41
1040
3.0
1070
   176
1070
     7
1070
   177
1070
     7
1070
   178
1070
     7
1070
   271
1070
     2
1070
    43
1040
7.5
1070
    44
1040
2.0
1070
    42
1040
1.0
1070
   147
1040
2.0
1070
    45
1040
2.0
1070
   272
1070
     2
1070
   172
1070
     1
1070
   340
1005
AC
1070
   140
1040
4.0625
1070
    78
1070
     8
1002
}
  0
MTEXT
  5
120
102
{ACAD_XDICTIONARY
360
11E
102
}
330
1F
100
AcDbEntity
  8
0
  6
Continuous
 62
     7
100
AcDbMText
 10
-21.642116314203
 20
39.43867847065015
 30
0.0
 40
4.062499850988388
 41
0.0
 46
0.0
 71
     9
 72
     1
  1
\A1;ドレインバルブ20Ａ（オプション）
  7
_TCW_TXTSTY_3
 73
     1
 44
1.0
  0
CIRCLE
  5
123
102
{ACAD_XDICTIONARY
360
121
102
}
330
1F
100
AcDbEntity
  8
0
  6
Continuous
 62
     7
 48
0.2000000029802322
370
     0
100
AcDbCircle
 10
62.678932493091
 20
73.145714894834
 30
0.0
 40
2.904579738847005
  0
LEADER
  5
126
102
{ACAD_XDICTIONARY
360
124
102
}
330
1F
100
AcDbEntity
  8
0
  6
Continuous
 62
     7
370
     0
100
AcDbLeader
  3
標準寸法
 76
     4
 10
-33.75330329837898
 20
132.132494550841
 30
0.0
 10
-57.07018535375053
 20
165.060871494969
 30
0.0
 10
-104.3018182351437
 20
165.060871494969
 30
0.0
 10
-107.6975899042835
 20
165.060871494969
 30
0.0
1001
ACAD
1000
DSTYLE
1002
{
1070
   179
1070
     2
1070
   143
1040
1.0
1070
   148
1040
0.01
1070
   286
1070
     8
1070
    41
1040
3.0
1070
   176
1070
     7
1070
   177
1070
     7
1070
   178
1070
     7
1070
   271
1070
     2
1070
    43
1040
7.5
1070
    44
1040
2.0
1070
    42
1040
1.0
1070
   147
1040
2.0
1070
    45
1040
2.0
1070
   272
1070
     2
1070
   172
1070
     1
1070
   340
1005
AC
1070
   140
1040
4.0625
1070
    78
1070
     8
1002
}
  0
TEXT
  5
129
102
{ACAD_XDICTIONARY
360
127
102
}
330
1F
100
AcDbEntity
  8
0
  6
Continuous
 62
     7
100
AcDbText
 10
-108.762762997299
 20
167.9395648888446
 30
0.0
 40
4.062499850988388
  1
雨水流入口の取り付け場所は別途ご協議
  7
_TCW_TXTSTY_3
 11
-108.762762997299
 21
172.002064739833
 31
0.0
100
AcDbText
 73
     3
  0
LEADER
  5
12C
102
{ACAD_XDICTIONARY
360
12A
102
}
330
1F
100
AcDbEntity
  8
0
  6
Continuous
 62
     7
370
     0
100
AcDbLeader
  3
標準寸法
 76
     4
 10
60.361449229672
 20
75.268888187381
 30
0.0
 10
31.839289826085
 20
99.56554249414
 30
0.0
 10
5.958071108016
 20
100.093730631244
 30
0.0
 10
2.958071108016
 20
100.093730631244
 30
0.0
1001
ACAD
1000
DSTYLE
1002
{
1070
   179
1070
     2
1070
   143
1040
1.0
1070
   148
1040
0.01
1070
   286
1070
     8
1070
    41
1040
3.0
1070
   176
1070
     7
1070
   177
1070
     7
1070
   178
1070
     7
1070
   271
1070
     2
1070
    43
1040
7.5
1070
    44
1040
2.0
1070
    42
1040
1.0
1070
   147
1040
2.0
1070
    45
1040
2.0
1070
   272
1070
     2
1070
   172
1070
     1
1070
   340
1005
AC
1070
   140
1040
4.0625
1070
    78
1070
     8
1002
}
  0
TEXT
  5
12F
102
{ACAD_XDICTIONARY
360
12D
102
}
330
1F
100
AcDbEntity
  8
0
  6
Continuous
 62
     7
100
AcDbText
 10
-0.309037343299
 20
101.3878596204646
 30
0.0
 40
4.062499850988388
  1
ドレイン用プラグ　15A
  7
_TCW_TXTSTY_3
 11
-0.309037343299
 21
105.450359471453
 31
0.0
100
AcDbText
 73
     3
  0
LEADER
  5
132
102
{ACAD_XDICTIONARY
360
130
102
}
330
1F
100
AcDbEntity
  8
0
  6
Continuous
 62
     7
370
     0
100
AcDbLeader
  3
標準寸法
 76
     4
 10
-60.59363416702
 20
87.945403477864
 30
0.0
 10
3.317130422498
 20
99.56554249414
 30
0.0
 10
15.465457575878
 20
99.56554249414
 30
0.0
 10
18.465457575878
 20
99.56554249414
 30
0.0
1001
ACAD
1000
DSTYLE
1002
{
1070
   179
1070
     2
1070
   143
1040
1.0
1070
   148
1040
0.01
1070
   286
1070
     8
1070
    41
1040
3.0
1070
   176
1070
     7
1070
   177
1070
     7
1070
   178
1070
     7
1070
   271
1070
     2
1070
    43
1040
7.5
1070
    44
1040
2.0
1070
    42
1040
1.0
1070
   147
1040
2.0
1070
    45
1040
2.0
1070
   272
1070
     2
1070
   172
1070
     1
1070
   340
1005
AC
1070
   140
1040
4.0625
1070
    78
1070
     8
1002
}
  0
LWPOLYLINE
  5
135
102
{ACAD_XDICTIONARY
360
133
102
}
330
1F
100
AcDbEntity
  8
0
  6
Continuous
 62
     7
 48
0.2000000029802322
370
     0
100
AcDbPolyline
 90
        4
 70
   129
 43
0.0
 10
-61.624855024562
 20
89.499213969462
 10
-56.81249105992
 20
85.374330571197
 10
-59.562413325429
 20
82.166087928103
 10
-64.374777290071
 20
86.290971326367
  0
LWPOLYLINE
  5
138
102
{ACAD_XDICTIONARY
360
136
102
}
330
1F
100
AcDbEntity
  8
0
  6
Continuous
 62
     7
 48
0.2000000029802322
370
     0
100
AcDbPolyline
 90
        6
 70
   129
 43
0.0
 10
63.002389915189
 20
72.099759364761
 10
63.746485264413
 20
72.902859474377
 10
63.423027842315
 20
73.948815004451
 10
62.355475070993
 20
74.191670424908
 10
61.611379721769
 20
73.388570315292
 10
61.934837143867
 20
72.342614785218
  0
LWPOLYLINE
  5
13B
102
{ACAD_XDICTIONARY
360
139
102
}
330
1F
100
AcDbEntity
  8
0
  6
Continuous
 62
     7
 48
0.2000000029802322
370
     0
100
AcDbPolyline
 90
        6
 70
   129
 43
0.0
 10
63.530578052292
 20
72.099759364761
 10
64.010579332965
 20
73.360283819086
 10
63.158933773763
 20
74.40623934916
 10
61.82728693389
 20
74.191670424908
 10
61.347285653218
 20
72.931145970583
 10
62.198931212419
 20
71.885190440509
  0
MTEXT
  5
13E
102
{ACAD_XDICTIONARY
360
13C
102
}
330
1F
100
AcDbEntity
  8
0
  6
Continuous
 62
     7
100
AcDbMText
 10
116.756523735035
 20
116.2564197471124
 30
0.0
 40
3.761345893144608
 41
46.59215716322873
 46
0.0
 71
     1
 72
     1
  1
砲金蛇口２０A
  7
_TCW_TXTSTY_3
 73
     1
 44
1.0
  0
MTEXT
  5
141
102
{ACAD_XDICTIONARY
360
13F
102
}
330
1F
100
AcDbEntity
  8
0
  6
Continuous
 62
     7
100
AcDbMText
 10
148.7512983398515
 20
49.35486075065447
 30
-0.0000000000000182
 40
4.246680811047554
 41
22.69874323336785
 46
0.0
 71
     1
 72
     1
  1
土台
  7
_TCW_TXTSTY_3
210
0.0
220
0.0
230
-1.0
 11
-1.0
 21
1.224606353822377E-16
 31
-1.359586170115864E-32
 73
     1
 44
1.0
  0
ELLIPSE
  5
144
102
{ACAD_XDICTIONARY
360
142
102
}
330
1F
100
AcDbEntity
  8
0
  6
Continuous
 62
     7
370
     0
100
AcDbEllipse
 10
-29.25046009320505
 20
127.9298408960208
 30
0.0
 11
2.341827486355069
 21
0.0
 31
0.0
210
0.0
220
0.0
230
1.0
 40
0.9359069901008669
 41
0.0
 42
6.283185307179586
  0
TEXT
  5
148
102
{ACAD_XDICTIONARY
360
146
102
}
330
1F
100
AcDbEntity
  8
0
  6
Continuous
 62
     7
100
AcDbText
 10
-96.43120942347228
 20
221.4374237381037
 30
0.0
 40
7.8125
  1
システム構成図　　アーサー180M/G
  7
_TCW_TXTSTY_4
 11
-96.43120942347228
 21
229.2499237381037
 31
0.0
100
AcDbText
 73
     3
  0
LWPOLYLINE
  5
149
102
{ACAD_REACTORS
330
14C
102
}
330
1F
100
AcDbEntity
  8
0
  6
Continuous
 62
     7
 48
0.2000000029802322
370
     0
100
AcDbPolyline
 90
        4
 70
   129
 43
0.0
 10
31.018395192565
 20
184.809610886554
 10
43.018395192565
 20
184.809610886554
 10
43.018395192565
 20
171.809610886554
 10
31.018395192565
 20
171.809610886554
  0
LWPOLYLINE
  5
14A
102
{ACAD_REACTORS
330
14C
102
}
330
1F
100
AcDbEntity
  8
0
  6
Continuous
 62
     7
 48
0.2000000029802322
370
     0
100
AcDbPolyline
 90
        4
 70
   129
 43
0.0
 10
31.880882631453
 20
192.356384103269
 10
42.230736147078
 20
192.356384103269
 10
42.230736147078
 20
184.162750070066
 10
31.880882631453
 20
184.162750070066
  0
LWPOLYLINE
  5
14B
102
{ACAD_REACTORS
330
14C
102
}
330
1F
100
AcDbEntity
  8
0
  6
Continuous
 62
     7
 48
0.2000000029802322
370
     0
100
AcDbPolyline
 90
        4
 70
   129
 43
0.0
 10
43.093224294127
 20
177.909708542804
 10
47.836907155455
 20
177.909708542804
 10
47.836907155455
 20
174.028513474445
 10
43.093224294127
 20
174.028513474445
  0
MTEXT
  5
150
102
{ACAD_XDICTIONARY
360
14E
102
}
330
1F
100
AcDbEntity
  8
0
  6
Continuous
 62
     7
100
AcDbMText
 10
-119.7460387178418
 20
69.13612711784414
 30
0.0
 40
3.90625
 41
0.0
 46
0.0
 71
     1
 72
     1
  1
{寸法\P単位mm：\Pa=高さ、b=中央部、c=端部\Pアーサー180：a=880 b=660 c=550}
  7
_TCW_TXTSTY_5
 73
     1
 44
1.0
  0
VIEWPORT
  5
151
330
1B
100
AcDbEntity
 67
     1
  8
0
100
AcDbViewport
 10
105.0
 20
148.5
 30
0.0
 40
210.0
 41
297.0
 68
     1
 69
     1
 12
105.0
 22
148.5
 13
0.0
 23
0.0
 14
5.0
 24
5.0
 15
5.0
 25
5.0
 16
0.0
 26
0.0
 36
1.0
 17
0.0
 27
0.0
 37
0.0
 42
50.0
 43
0.0
 44
0.0
 45
297.0
 50
0.0
 51
0.0
 72
  1000
 90
    33312
  1

281
     0
 71
     1
 74
     0
110
0.0
120
0.0
130
0.0
111
1.0
121
0.0
131
0.0
112
0.0
122
1.0
132
0.0
 79
     0
146
0.0
170
     0
 61
     5
292
     1
282
     1
141
0.0
142
0.0
 63
   256
  0
VIEWPORT
  5
152
330
1B
100
AcDbEntity
 67
     1
  8
0
  6
Continuous
100
AcDbViewport
 10
105.0
 20
148.5
 30
0.0
 40
210.0
 41
297.0
 68
     2
 69
     2
 12
105.0
 22
148.5
 13
0.0
 23
0.0
 14
0.5
 24
0.5
 15
0.0
 25
0.0
 16
0.0
 26
0.0
 36
1.0
 17
0.0
 27
0.0
 37
0.0
 42
50.0
 43
0.0
 44
0.0
 45
297.0
 50
0.0
 51
0.0
 72
   100
331
72
 90
   557152
  1

281
     0
 71
     1
 74
     0
110
0.0
120
0.0
130
0.0
111
1.0
121
0.0
131
0.0
112
0.0
122
1.0
132
0.0
 79
     0
146
0.0
170
     0
 61
     5
292
     1
282
     1
141
0.0
142
0.0
 63
   256
  0
LINE
  5
153
330
1B
100
AcDbEntity
 67
     1
  8
0
  6
Continuous
 62
     7
 48
0.2000000029802322
370
     0
100
AcDbLine
 10
7.005970384485
 20
290.197743115887
 30
0.0
 11
7.005970384485
 21
6.802258076206
 31
0.0
  0
LINE
  5
154
330
1B
100
AcDbEntity
 67
     1
  8
0
  6
Continuous
 62
     7
 48
0.2000000029802322
370
     0
100
AcDbLine
 10
7.005970384485
 20
6.802258076206
 30
0.0
 11
203.536938936907
 21
6.802258076206
 31
0.0
  0
LINE
  5
155
330
1B
100
AcDbEntity
 67
     1
  8
0
  6
Continuous
 62
     7
 48
0.2000000029802322
370
     0
100
AcDbLine
 10
202.994035708862
 20
290.740646343932
 30
0.0
 11
202.994035708862
 21
6.802258076206
 31
0.0
  0
LINE
  5
156
330
1B
100
AcDbEntity
 67
     1
  8
0
  6
Continuous
 62
     7
 48
0.2000000029802322
370
     0
100
AcDbLine
 10
202.451132480816
 20
290.197743115887
 30
0.0
 11
7.54887361253
 21
290.197743115887
 31
0.0
  0
LWPOLYLINE
  5
157
330
1B
100
AcDbEntity
 67
     1
  8
0
  6
Continuous
 62
     7
 48
0.2000000029802322
370
     0
100
AcDbPolyline
 90
        4
 70
   129
 43
0.0
 10
117.237212868147
 20
239.567637515324
 10
191.229669899069
 20
239.567637515324
 10
191.229669899069
 20
224.76914610914
 10
117.237212868147
 20
224.76914610914
  0
LWPOLYLINE
  5
158
330
1B
100
AcDbEntity
 67
     1
  8
0
  6
DOT
 62
     7
 48
0.2000000029802322
370
     0
100
AcDbPolyline
 90
        4
 70
   129
 43
0.0
 10
42.675583090833
 20
64.262431626679
 10
113.253003643405
 20
64.262431626679
 10
113.253003643405
 20
43.203040010186
 10
42.675583090833
 20
43.203040010186
  0
ENDSEC
  0
SECTION
  2
OBJECTS
  0
DICTIONARY
  5
C
330
0
100
AcDbDictionary
281
     1
  3
ACAD_GROUP
350
D
  3
ACAD_LAYOUT
350
1A
  3
ACAD_MLEADERSTYLE
350
159
  3
ACAD_MLINESTYLE
350
17
  3
ACAD_PLOTSETTINGS
350
19
  3
ACAD_PLOTSTYLENAME
350
E
  3
ACAD_SCALELIST
350
3B
  3
ACAD_TABLESTYLE
350
7B
  3
ACAD_VISUALSTYLE
350
2A
  0
DICTIONARY
  5
CA
330
CC
100
AcDbDictionary
280
     1
281
     1
  3
TC_OPTIONAL_DATA
360
CB
  0
DICTIONARY
  5
10D
330
10F
100
AcDbDictionary
280
     1
281
     1
  3
TC_OPTIONAL_DATA
360
10E
  0
DICTIONARY
  5
111
330
113
100
AcDbDictionary
280
     1
281
     1
  3
TC_OPTIONAL_DATA
360
112
  0
DICTIONARY
  5
115
330
117
100
AcDbDictionary
280
     1
281
     1
  3
TC_OPTIONAL_DATA
360
116
  0
DICTIONARY
  5
118
330
11A
100
AcDbDictionary
280
     1
281
     1
  3
TC_OPTIONAL_DATA
360
119
  0
DICTIONARY
  5
11B
330
11D
100
AcDbDictionary
280
     1
281
     1
  3
TC_OPTIONAL_DATA
360
11C
  0
DICTIONARY
  5
11E
330
120
100
AcDbDictionary
280
     1
281
     1
  3
TC_OPTIONAL_DATA
360
11F
  0
DICTIONARY
  5
121
330
123
100
AcDbDictionary
280
     1
281
     1
  3
TC_OPTIONAL_DATA
360
122
  0
DICTIONARY
  5
124
330
126
100
AcDbDictionary
280
     1
281
     1
  3
TC_OPTIONAL_DATA
360
125
  0
DICTIONARY
  5
127
330
129
100
AcDbDictionary
280
     1
281
     1
  3
TC_OPTIONAL_DATA
360
128
  0
DICTIONARY
  5
12A
330
12C
100
AcDbDictionary
280
     1
281
     1
  3
TC_OPTIONAL_DATA
360
12B
  0
DICTIONARY
  5
12D
330
12F
100
AcDbDictionary
280
     1
281
     1
  3
TC_OPTIONAL_DATA
360
12E
  0
DICTIONARY
  5
130
330
132
100
AcDbDictionary
280
     1
281
     1
  3
TC_OPTIONAL_DATA
360
131
  0
DICTIONARY
  5
133
330
135
100
AcDbDictionary
280
     1
281
     1
  3
TC_OPTIONAL_DATA
360
134
  0
DICTIONARY
  5
136
330
138
100
AcDbDictionary
280
     1
281
     1
  3
TC_OPTIONAL_DATA
360
137
  0
DICTIONARY
  5
139
330
13B
100
AcDbDictionary
280
     1
281
     1
  3
TC_OPTIONAL_DATA
360
13A
  0
DICTIONARY
  5
13C
330
13E
100
AcDbDictionary
280
     1
281
     1
  3
TC_OPTIONAL_DATA
360
13D
  0
DICTIONARY
  5
13F
330
141
100
AcDbDictionary
280
     1
281
     1
  3
TC_OPTIONAL_DATA
360
140
  0
DICTIONARY
  5
142
330
144
100
AcDbDictionary
280
     1
281
     1
  3
TC_OPTIONAL_DATA
360
143
  0
DICTIONARY
  5
146
330
148
100
AcDbDictionary
280
     1
281
     1
  3
TC_OPTIONAL_DATA
360
147
  0
DICTIONARY
  5
14E
330
150
100
AcDbDictionary
280
     1
281
     1
  3
TC_OPTIONAL_DATA
360
14F
  0
DICTIONARY
  5
D
102
{ACAD_REACTORS
330
C
102
}
330
C
100
AcDbDictionary
281
     1
  3
ｸﾞﾙｰﾌﾟ_1
350
14C
  0
DICTIONARY
  5
1A
102
{ACAD_REACTORS
330
C
102
}
330
C
100
AcDbDictionary
281
     1
  3
Model
350
22
  3
ペーパー 1
350
1E
  0
DICTIONARY
  5
159
102
{ACAD_REACTORS
330
C
102
}
330
C
100
AcDbDictionary
281
     1
  0
DICTIONARY
  5
17
102
{ACAD_REACTORS
330
C
102
}
330
C
100
AcDbDictionary
281
     1
  3
Standard
350
18
  0
DICTIONARY
  5
19
102
{ACAD_REACTORS
330
C
102
}
330
C
100
AcDbDictionary
281
     1
  0
ACDBDICTIONARYWDFLT
  5
E
102
{ACAD_REACTORS
330
C
102
}
330
C
100
AcDbDictionary
281
     1
  3
Normal
350
F
100
AcDbDictionaryWithDefault
340
F
  0
DICTIONARY
  5
3B
102
{ACAD_REACTORS
330
C
102
}
330
C
100
AcDbDictionary
281
     1
  3
A0
350
3C
  3
A1
350
3D
  3
A2
350
3E
  3
A3
350
3F
  3
A4
350
40
  3
A5
350
41
  3
A6
350
42
  3
A7
350
43
  3
A8
350
44
  3
A9
350
45
  3
B0
350
46
  3
B1
350
47
  3
B2
350
48
  3
B3
350
49
  3
B4
350
4A
  3
B5
350
4B
  3
B6
350
4C
  3
B7
350
4D
  3
B8
350
4E
  3
B9
350
4F
  3
C0
350
50
  3
C1
350
51
  3
C2
350
52
  3
C3
350
53
  3
C4
350
54
  3
C5
350
55
  3
C6
350
56
  3
C7
350
57
  3
C8
350
58
  3
C9
350
59
  3
D0
350
5A
  3
D1
350
5B
  3
D2
350
5C
  0
DICTIONARY
  5
7B
102
{ACAD_REACTORS
330
C
102
}
330
C
100
AcDbDictionary
281
     1
  3
標準
350
7C
  0
DICTIONARY
  5
2A
102
{ACAD_REACTORS
330
C
102
}
330
C
100
AcDbDictionary
281
     1
  3
2dWireframe
350
2F
  3
3D Hidden
350
31
  3
3dWireframe
350
30
  3
Basic
350
32
  3
Brighten
350
36
  3
ColorChange
350
3A
  3
Conceptual
350
34
  3
Dim
350
35
  3
Facepattern
350
39
  3
Flat
350
2B
  3
FlatWithEdges
350
2C
  3
Gouraud
350
2D
  3
GouraudWithEdges
350
2E
  3
Linepattern
350
38
  3
Realistic
350
33
  3
Thicken
350
37
  0
TCOPTIONALDATA
  5
CB
102
{ACAD_REACTORS
330
CA
102
}
330
CA
100
TcOptionalData
 70
     1
 70
     2
 10
49.635522988312
 20
23.94151984573
 30
0.0
  0
TCOPTIONALDATA
  5
10E
102
{ACAD_REACTORS
330
10D
102
}
330
10D
100
TcOptionalData
 70
     1
 70
     3
  1
接続ホース G：VP25　M：VP20
 10
121.384118731487
 20
179.961694107597
 30
0.0
  0
TCOPTIONALDATA
  5
112
102
{ACAD_REACTORS
330
111
102
}
330
111
100
TcOptionalData
 70
     1
 70
     3
  1
雨水コレクター（別図）
 10
104.139468756805
 20
199.699142882544
 30
0.0
  0
TCOPTIONALDATA
  5
116
102
{ACAD_REACTORS
330
115
102
}
330
115
100
TcOptionalData
 70
     1
 70
   128
 90
        1
  1
#$AUX@_ToolInfo Properties
 70
     8
  1
挿入^J線^J矩形@線 矩形
  0
TCOPTIONALDATA
  5
119
102
{ACAD_REACTORS
330
118
102
}
330
118
100
TcOptionalData
 70
     1
 70
   128
 90
        1
  1
#$AUX@_ToolInfo Properties
 70
     8
  1
挿入^J線^J矩形@線 矩形
  0
TCOPTIONALDATA
  5
11C
102
{ACAD_REACTORS
330
11B
102
}
330
11B
100
TcOptionalData
 70
     1
 70
   128
 90
        1
  1
#$AUX@_ToolInfo Properties
 70
     8
  1
挿入^J寸法線^Jリーダー@寸法線 リーダー
  0
TCOPTIONALDATA
  5
11F
102
{ACAD_REACTORS
330
11E
102
}
330
11E
100
TcOptionalData
 70
     1
 70
     3
  1
ドレインバルブ20Ａ（オプション）
 10
-21.642116314203
 20
38.78867849449201
 30
0.0
  0
TCOPTIONALDATA
  5
122
102
{ACAD_REACTORS
330
121
102
}
330
121
100
TcOptionalData
 70
     1
 70
   128
 90
        1
  1
#$AUX@_ToolInfo Properties
 70
     8
  1
挿入^J円^J2点指定@円 2点指定
  0
TCOPTIONALDATA
  5
125
102
{ACAD_REACTORS
330
124
102
}
330
124
100
TcOptionalData
 70
     1
 70
   128
 90
        1
  1
#$AUX@_ToolInfo Properties
 70
     8
  1
挿入^J寸法線^Jリーダー@寸法線 リーダー
  0
TCOPTIONALDATA
  5
128
102
{ACAD_REACTORS
330
127
102
}
330
127
100
TcOptionalData
 70
     1
 70
   144
 90
        1
  1
#$AUX@_ToolInfo Properties
 70
     8
  1
挿入^Jテキスト@テキスト
  1
ＭＳ ゴシック
 70
     0
  0
TCOPTIONALDATA
  5
12B
102
{ACAD_REACTORS
330
12A
102
}
330
12A
100
TcOptionalData
 70
     1
 70
   128
 90
        1
  1
#$AUX@_ToolInfo Properties
 70
     8
  1
挿入^J寸法線^Jリーダー@寸法線 リーダー
  0
TCOPTIONALDATA
  5
12E
102
{ACAD_REACTORS
330
12D
102
}
330
12D
100
TcOptionalData
 70
     1
 70
   144
 90
        1
  1
#$AUX@_ToolInfo Properties
 70
     8
  1
挿入^Jテキスト@テキスト
  1
ＭＳ ゴシック
 70
     0
  0
TCOPTIONALDATA
  5
131
102
{ACAD_REACTORS
330
130
102
}
330
130
100
TcOptionalData
 70
     1
 70
   128
 90
        1
  1
#$AUX@_ToolInfo Properties
 70
     8
  1
挿入^J寸法線^Jリーダー@寸法線 リーダー
  0
TCOPTIONALDATA
  5
134
102
{ACAD_REACTORS
330
133
102
}
330
133
100
TcOptionalData
 70
     1
 70
   128
 90
        1
  1
#$AUX@_ToolInfo Properties
 70
     8
  1
挿入^J線^J矩形@線 矩形
  0
TCOPTIONALDATA
  5
137
102
{ACAD_REACTORS
330
136
102
}
330
136
100
TcOptionalData
 70
     1
 70
   128
 90
        1
  1
#$AUX@_ToolInfo Properties
 70
     8
  1
挿入^J線^J正多角形@線 正多角形
  0
TCOPTIONALDATA
  5
13A
102
{ACAD_REACTORS
330
139
102
}
330
139
100
TcOptionalData
 70
     1
 70
   128
 90
        1
  1
#$AUX@_ToolInfo Properties
 70
     8
  1
挿入^J線^J正多角形@線 正多角形
  0
TCOPTIONALDATA
  5
13D
102
{ACAD_REACTORS
330
13C
102
}
330
13C
100
TcOptionalData
 70
     1
 70
   130
 10
116.756523735035
 20
116.8582350900155
 30
0.0
 90
        1
  1
#$AUX@_ToolInfo Properties
 70
     8
  1
CMD_MTEXT@
  0
TCOPTIONALDATA
  5
140
102
{ACAD_REACTORS
330
13F
102
}
330
13F
100
TcOptionalData
 70
     1
 70
   130
 10
148.7512983398515
 20
50.03432968042208
 30
-0.0000000000000182
 90
        1
  1
#$AUX@_ToolInfo Properties
 70
     8
  1
CMD_MTEXT@
  0
TCOPTIONALDATA
  5
143
102
{ACAD_REACTORS
330
142
102
}
330
142
100
TcOptionalData
 70
     1
 70
   128
 90
        1
  1
#$AUX@_ToolInfo Properties
 70
     8
  1
CMD_CENTERPTCIRCLE@
  0
TCOPTIONALDATA
  5
147
102
{ACAD_REACTORS
330
146
102
}
330
146
100
TcOptionalData
 70
     1
 70
   144
 90
        1
  1
#$AUX@_ToolInfo Properties
 70
     8
  1
CMD_TEXT@
  1
HGS平成角ｺﾞｼｯｸ体W7
 70
     0
  0
TCOPTIONALDATA
  5
14F
102
{ACAD_REACTORS
330
14E
102
}
330
14E
100
TcOptionalData
 70
     1
 70
   144
 90
        1
  1
#$AUX@_ToolInfo Properties
 70
     8
  1
CMD_TEXT@
  1
HG平成角ｺﾞｼｯｸ体W3
 70
     0
  0
GROUP
  5
14C
102
{ACAD_REACTORS
330
D
102
}
330
D
100
AcDbGroup
300

 70
     0
 71
     1
340
149
340
14A
340
14B
  0
LAYOUT
  5
22
102
{ACAD_REACTORS
330
1A
102
}
330
1A
100
AcDbPlotSettings
  1

  2
none_device
  4
ISO_B4_(354.00_x_250.00_MM)
  6

 40
7.5
 41
20.0
 42
7.5
 43
20.0
 44
354.0
 45
250.0
 46
126.7799348180753
 47
-32.1727711298923
 48
0.0
 49
0.0
140
0.0
141
0.0
142
1.0
143
1.122137
 70
  1696
 72
     1
 73
     0
 74
     0
  7

 75
     0
 76
     0
 77
     2
 78
   300
147
0.0278826625179484
148
0.0
149
0.0
100
AcDbLayout
  1
Model
 70
     1
 71
     0
 10
-150.6804832169506
 20
13.65951687738395
 11
246.5560147830494
 21
294.1937668773839
 12
0.0
 22
0.0
 32
0.0
 14
-134.27992065226
 24
11.99777028382414
 34
-0.0000000000000182
 15
197.543569176089
 25
237.306345593288
 35
0.0
146
0.0
 13
0.0
 23
0.0
 33
0.0
 16
1.0
 26
0.0
 36
0.0
 17
0.0
 27
1.0
 37
0.0
 76
     0
330
1F
331
29
  0
LAYOUT
  5
1E
102
{ACAD_REACTORS
330
1A
102
}
330
1A
100
AcDbPlotSettings
  1

  2
none_device
  4
ISO_A4_(210.00_x_297.00_MM)
  6

 40
7.5
 41
20.0
 42
7.5
 43
20.0
 44
210.0
 45
297.0
 46
-7.5
 47
-20.0
 48
0.0
 49
0.0
140
0.0
141
0.0
142
1.0
143
1.0
 70
   688
 72
     1
 73
     0
 74
     5
  7

 75
    16
 76
     0
 77
     2
 78
   300
147
1.0
148
0.0
149
0.0
100
AcDbLayout
  1
ペーパー 1
 70
     1
 71
     1
 10
0.0
 20
0.0
 11
210.0
 21
297.0
 12
0.0
 22
0.0
 32
0.0
 14
0.0
 24
0.0
 34
0.0
 15
210.0
 25
297.0
 35
0.0
146
0.0
 13
0.0
 23
0.0
 33
0.0
 16
1.0
 26
0.0
 36
0.0
 17
0.0
 27
1.0
 37
0.0
 76
     0
330
1B
331
151
  0
MLINESTYLE
  5
18
102
{ACAD_REACTORS
330
17
102
}
330
17
100
AcDbMlineStyle
  2
Standard
 70
     0
  3

 62
   256
 51
90.0
 52
90.0
 71
    11
 49
0.5
 62
   256
  6
BYLAYER
 49
-0.5
 62
   256
  6
BYLAYER
 49
0.5
 62
   256
  6
BYLAYER
 49
-0.5
 62
   256
  6
BYLAYER
 49
0.5
 62
   256
  6
BYLAYER
 49
-0.5
 62
   256
  6
BYLAYER
 49
0.5
 62
   256
  6
BYLAYER
 49
-0.5
 62
   256
  6
BYLAYER
 49
5.0
 62
     7
  6
BYLAYER
 49
0.0
 62
     7
  6
BYLAYER
 49
-5.0
 62
     7
  6
BYLAYER
  0
ACDBPLACEHOLDER
  5
F
102
{ACAD_REACTORS
330
E
102
}
330
E
  0
SCALE
  5
3C
102
{ACAD_REACTORS
330
3B
102
}
330
3B
100
AcDbScale
 70
     0
300
1:1
140
1.0
141
1.0
290
     1
  0
SCALE
  5
3D
102
{ACAD_REACTORS
330
3B
102
}
330
3B
100
AcDbScale
 70
     0
300
1:2
140
1.0
141
2.0
290
     0
  0
SCALE
  5
3E
102
{ACAD_REACTORS
330
3B
102
}
330
3B
100
AcDbScale
 70
     0
300
1:4
140
1.0
141
4.0
290
     0
  0
SCALE
  5
3F
102
{ACAD_REACTORS
330
3B
102
}
330
3B
100
AcDbScale
 70
     0
300
1:5
140
1.0
141
5.0
290
     0
  0
SCALE
  5
40
102
{ACAD_REACTORS
330
3B
102
}
330
3B
100
AcDbScale
 70
     0
300
1:8
140
1.0
141
8.0
290
     0
  0
SCALE
  5
41
102
{ACAD_REACTORS
330
3B
102
}
330
3B
100
AcDbScale
 70
     0
300
1:10
140
1.0
141
10.0
290
     0
  0
SCALE
  5
42
102
{ACAD_REACTORS
330
3B
102
}
330
3B
100
AcDbScale
 70
     0
300
1:16
140
1.0
141
16.0
290
     0
  0
SCALE
  5
43
102
{ACAD_REACTORS
330
3B
102
}
330
3B
100
AcDbScale
 70
     0
300
1:20
140
1.0
141
20.0
290
     0
  0
SCALE
  5
44
102
{ACAD_REACTORS
330
3B
102
}
330
3B
100
AcDbScale
 70
     0
300
1:30
140
1.0
141
30.0
290
     0
  0
SCALE
  5
45
102
{ACAD_REACTORS
330
3B
102
}
330
3B
100
AcDbScale
 70
     0
300
1:40
140
1.0
141
40.0
290
     0
  0
SCALE
  5
46
102
{ACAD_REACTORS
330
3B
102
}
330
3B
100
AcDbScale
 70
     0
300
1:50
140
1.0
141
50.0
290
     0
  0
SCALE
  5
47
102
{ACAD_REACTORS
330
3B
102
}
330
3B
100
AcDbScale
 70
     0
300
1:100
140
1.0
141
100.0
290
     0
  0
SCALE
  5
48
102
{ACAD_REACTORS
330
3B
102
}
330
3B
100
AcDbScale
 70
     0
300
2:1
140
2.0
141
1.0
290
     0
  0
SCALE
  5
49
102
{ACAD_REACTORS
330
3B
102
}
330
3B
100
AcDbScale
 70
     0
300
4:1
140
4.0
141
1.0
290
     0
  0
SCALE
  5
4A
102
{ACAD_REACTORS
330
3B
102
}
330
3B
100
AcDbScale
 70
     0
300
8:1
140
8.0
141
1.0
290
     0
  0
SCALE
  5
4B
102
{ACAD_REACTORS
330
3B
102
}
330
3B
100
AcDbScale
 70
     0
300
10:1
140
10.0
141
1.0
290
     0
  0
SCALE
  5
4C
102
{ACAD_REACTORS
330
3B
102
}
330
3B
100
AcDbScale
 70
     0
300
100:1
140
100.0
141
1.0
290
     0
  0
SCALE
  5
4D
102
{ACAD_REACTORS
330
3B
102
}
330
3B
100
AcDbScale
 70
     0
300
1/128" = 1'-0"
140
0.0078125
141
12.0
290
     0
  0
SCALE
  5
4E
102
{ACAD_REACTORS
330
3B
102
}
330
3B
100
AcDbScale
 70
     0
300
1/64" = 1'-0"
140
0.015625
141
12.0
290
     0
  0
SCALE
  5
4F
102
{ACAD_REACTORS
330
3B
102
}
330
3B
100
AcDbScale
 70
     0
300
1/32" = 1'-0"
140
0.03125
141
12.0
290
     0
  0
SCALE
  5
50
102
{ACAD_REACTORS
330
3B
102
}
330
3B
100
AcDbScale
 70
     0
300
1/16" = 1'-0"
140
0.0625
141
12.0
290
     0
  0
SCALE
  5
51
102
{ACAD_REACTORS
330
3B
102
}
330
3B
100
AcDbScale
 70
     0
300
3/32" = 1'-0"
140
0.09375
141
12.0
290
     0
  0
SCALE
  5
52
102
{ACAD_REACTORS
330
3B
102
}
330
3B
100
AcDbScale
 70
     0
300
1/8" = 1'-0"
140
0.125
141
12.0
290
     0
  0
SCALE
  5
53
102
{ACAD_REACTORS
330
3B
102
}
330
3B
100
AcDbScale
 70
     0
300
3/16" = 1'-0"
140
0.1875
141
12.0
290
     0
  0
SCALE
  5
54
102
{ACAD_REACTORS
330
3B
102
}
330
3B
100
AcDbScale
 70
     0
300
1/4" = 1'-0"
140
0.25
141
12.0
290
     0
  0
SCALE
  5
55
102
{ACAD_REACTORS
330
3B
102
}
330
3B
100
AcDbScale
 70
     0
300
3/8" = 1'-0"
140
0.375
141
12.0
290
     0
  0
SCALE
  5
56
102
{ACAD_REACTORS
330
3B
102
}
330
3B
100
AcDbScale
 70
     0
300
1/2" = 1'-0"
140
0.5
141
12.0
290
     0
  0
SCALE
  5
57
102
{ACAD_REACTORS
330
3B
102
}
330
3B
100
AcDbScale
 70
     0
300
3/4" = 1'-0"
140
0.75
141
12.0
290
     0
  0
SCALE
  5
58
102
{ACAD_REACTORS
330
3B
102
}
330
3B
100
AcDbScale
 70
     0
300
1" = 1'-0"
140
1.0
141
12.0
290
     0
  0
SCALE
  5
59
102
{ACAD_REACTORS
330
3B
102
}
330
3B
100
AcDbScale
 70
     0
300
1-1/2" = 1'-0"
140
1.5
141
12.0
290
     0
  0
SCALE
  5
5A
102
{ACAD_REACTORS
330
3B
102
}
330
3B
100
AcDbScale
 70
     0
300
3" = 1'-0"
140
3.0
141
12.0
290
     0
  0
SCALE
  5
5B
102
{ACAD_REACTORS
330
3B
102
}
330
3B
100
AcDbScale
 70
     0
300
6" = 1'-0"
140
6.0
141
12.0
290
     0
  0
SCALE
  5
5C
102
{ACAD_REACTORS
330
3B
102
}
330
3B
100
AcDbScale
 70
     0
300
1'-0" = 1'-0"
140
12.0
141
12.0
290
     0
  0
TABLESTYLE
  5
7C
102
{ACAD_REACTORS
330
7B
102
}
330
7B
100
AcDbTableStyle
  3

 70
     0
 71
     0
 40
1.302083333333333
 41
1.302083333333333
280
     0
281
     0
  7
Standard
140
3.90625
170
     5
 62
     0
 63
     7
421
 16383999
283
     0
 90
      512
 91
        0
  1

274
    -2
284
     1
 64
     0
275
    -2
285
     1
 65
     0
276
    -2
286
     1
 66
     0
277
    -2
287
     1
 67
     0
278
    -2
288
     1
 68
     0
279
    -2
289
     1
 69
     0
  7
Standard
140
3.90625
170
     5
 62
     0
 63
     7
421
 16383999
283
     0
 90
      512
 91
        0
  1

274
    -2
284
     1
 64
     0
275
    -2
285
     1
 65
     0
276
    -2
286
     1
 66
     0
277
    -2
287
     1
 67
     0
278
    -2
288
     1
 68
     0
279
    -2
289
     1
 69
     0
  7
Standard
140
3.90625
170
     5
 62
     0
 63
     7
421
 16383999
283
     0
 90
      512
 91
        0
  1

274
    -2
284
     1
 64
     0
275
    -2
285
     1
 65
     0
276
    -2
286
     1
 66
     0
277
    -2
287
     1
 67
     0
278
    -2
288
     1
 68
     0
279
    -2
289
     1
 69
     0
  0
VISUALSTYLE
  5
2F
102
{ACAD_REACTORS
330
2A
102
}
330
2A
100
AcDbVisualStyle
  2
2dWireframe
 70
     4
 71
     0
 72
     2
 73
     0
 90
        0
 40
-0.6
 41
-30.0
 62
     5
 63
     7
421
 16777215
 74
     1
 91
        4
 64
     7
 65
   257
 75
     1
175
     1
 42
1.0
 92
        0
 66
   257
 43
1.0
 76
     1
 77
     6
 78
     2
 67
     7
 79
     5
170
     0
171
     0
290
     0
174
     0
 93
        1
 44
0.0
173
     0
291
     0
 45
0.0
  0
VISUALSTYLE
  5
31
102
{ACAD_REACTORS
330
2A
102
}
330
2A
100
AcDbVisualStyle
  2
3D Hidden
 70
     6
 71
     1
 72
     2
 73
     2
 90
        0
 40
-0.6
 41
-30.0
 62
     5
 63
     7
421
 16777215
 74
     2
 91
        2
 64
     7
 65
   257
 75
     2
175
     1
 42
40.0
 92
        0
 66
   257
 43
1.0
 76
     1
 77
     6
 78
     2
 67
     7
 79
     3
170
     0
171
     0
290
     0
174
     0
 93
        1
 44
0.0
173
     0
291
     0
 45
0.0
  0
VISUALSTYLE
  5
30
102
{ACAD_REACTORS
330
2A
102
}
330
2A
100
AcDbVisualStyle
  2
3dWireframe
 70
     5
 71
     0
 72
     2
 73
     0
 90
        0
 40
-0.6
 41
-30.0
 62
     5
 63
     7
421
 16777215
 74
     1
 91
        4
 64
     7
 65
   257
 75
     1
175
     1
 42
1.0
 92
        0
 66
   257
 43
1.0
 76
     1
 77
     6
 78
     2
 67
     7
 79
     5
170
     0
171
     0
290
     0
174
     0
 93
        1
 44
0.0
173
     0
291
     0
 45
0.0
  0
VISUALSTYLE
  5
32
102
{ACAD_REACTORS
330
2A
102
}
330
2A
100
AcDbVisualStyle
  2
Basic
 70
     7
 71
     1
 72
     0
 73
     1
 90
        0
 40
-0.6
 41
-30.0
 62
     5
 63
     7
421
 16777215
 74
     0
 91
        4
 64
     7
 65
   257
 75
     1
175
     1
 42
1.0
 92
        8
 66
     7
 43
1.0
 76
     1
 77
     6
 78
     2
 67
     7
 79
     5
170
     0
171
     0
290
     0
174
     0
 93
        1
 44
0.0
173
     0
291
     1
 45
0.0
  0
VISUALSTYLE
  5
36
102
{ACAD_REACTORS
330
2A
102
}
330
2A
100
AcDbVisualStyle
  2
Brighten
 70
    12
 71
     2
 72
     2
 73
     0
 90
        0
 40
-0.6
 41
-30.0
 62
     5
 63
     7
421
 16777215
 74
     1
 91
        4
 64
     7
 65
   257
 75
     1
175
     1
 42
1.0
 92
        8
 66
     7
 43
1.0
 76
     1
 77
     6
 78
     2
 67
     7
 79
     5
170
     0
171
     0
290
     0
174
     0
 93
        1
 44
50.0
173
     0
291
     1
 45
0.0
  0
VISUALSTYLE
  5
3A
102
{ACAD_REACTORS
330
2A
102
}
330
2A
100
AcDbVisualStyle
  2
ColorChange
 70
    16
 71
     2
 72
     2
 73
     3
 90
        0
 40
-0.6
 41
-30.0
 62
     5
 63
     8
421
  8421504
 74
     1
 91
        4
 64
     7
 65
   257
 75
     1
175
     1
 42
1.0
 92
        8
 66
     8
424
  8421504
 43
1.0
 76
     1
 77
     6
 78
     2
 67
     7
 79
     5
170
     0
171
     0
290
     0
174
     0
 93
        1
 44
0.0
173
     0
291
     1
 45
0.0
  0
VISUALSTYLE
  5
34
102
{ACAD_REACTORS
330
2A
102
}
330
2A
100
AcDbVisualStyle
  2
Conceptual
 70
     9
 71
     3
 72
     2
 73
     0
 90
        0
 40
-0.6
 41
-30.0
 62
     5
 63
     7
421
 16777215
 74
     2
 91
        2
 64
     7
 65
   257
 75
     1
175
     1
 42
40.0
 92
        8
 66
     7
 43
1.0
 76
     1
 77
     6
 78
     2
 67
     7
 79
     3
170
     0
171
     0
290
     0
174
     0
 93
        1
 44
0.0
173
     0
291
     0
 45
0.0
  0
VISUALSTYLE
  5
35
102
{ACAD_REACTORS
330
2A
102
}
330
2A
100
AcDbVisualStyle
  2
Dim
 70
    11
 71
     2
 72
     2
 73
     0
 90
        0
 40
-0.6
 41
-30.0
 62
     5
 63
     7
421
 16777215
 74
     1
 91
        4
 64
     7
 65
   257
 75
     1
175
     1
 42
1.0
 92
        8
 66
     7
 43
1.0
 76
     1
 77
     6
 78
     2
 67
     7
 79
     5
170
     0
171
     0
290
     0
174
     0
 93
        1
 44
-50.0
173
     0
291
     1
 45
0.0
  0
VISUALSTYLE
  5
39
102
{ACAD_REACTORS
330
2A
102
}
330
2A
100
AcDbVisualStyle
  2
Facepattern
 70
    15
 71
     2
 72
     2
 73
     0
 90
        0
 40
-0.6
 41
-30.0
 62
     5
 63
     7
421
 16777215
 74
     1
 91
        4
 64
     7
 65
   257
 75
     1
175
     1
 42
1.0
 92
        8
 66
     7
 43
1.0
 76
     1
 77
     6
 78
     2
 67
     7
 79
     5
170
     0
171
     0
290
     0
174
     0
 93
        1
 44
0.0
173
     0
291
     1
 45
0.0
  0
VISUALSTYLE
  5
2B
102
{ACAD_REACTORS
330
2A
102
}
330
2A
100
AcDbVisualStyle
  2
Flat
 70
     0
 71
     2
 72
     1
 73
     1
 90
        2
 40
-0.6
 41
30.0
 62
     5
 63
     7
421
 16777215
 74
     0
 91
        4
 64
     7
 65
   257
 75
     1
175
     1
 42
1.0
 92
        8
 66
     7
 43
1.0
 76
     1
 77
     6
 78
     2
 67
     7
 79
     5
170
     0
171
     0
290
     0
174
     0
 93
       13
 44
0.0
173
     0
291
     1
 45
0.0
  0
VISUALSTYLE
  5
2C
102
{ACAD_REACTORS
330
2A
102
}
330
2A
100
AcDbVisualStyle
  2
FlatWithEdges
 70
     1
 71
     2
 72
     1
 73
     1
 90
        2
 40
-0.6
 41
30.0
 62
     5
 63
     7
421
 16777215
 74
     1
 91
        4
 64
     7
 65
   257
 75
     1
175
     1
 42
1.0
 92
        0
 66
   257
 43
1.0
 76
     1
 77
     6
 78
     2
 67
     7
 79
     5
170
     0
171
     0
290
     0
174
     0
 93
       13
 44
0.0
173
     0
291
     1
 45
0.0
  0
VISUALSTYLE
  5
2D
102
{ACAD_REACTORS
330
2A
102
}
330
2A
100
AcDbVisualStyle
  2
Gouraud
 70
     2
 71
     2
 72
     2
 73
     1
 90
        2
 40
-0.6
 41
30.0
 62
     5
 63
     7
421
 16777215
 74
     0
 91
        4
 64
     7
 65
   257
 75
     1
175
     1
 42
1.0
 92
        0
 66
     7
 43
1.0
 76
     1
 77
     6
 78
     2
 67
     7
 79
     5
170
     0
171
     0
290
     0
174
     0
 93
       13
 44
0.0
173
     0
291
     1
 45
0.0
  0
VISUALSTYLE
  5
2E
102
{ACAD_REACTORS
330
2A
102
}
330
2A
100
AcDbVisualStyle
  2
GouraudWithEdges
 70
     3
 71
     2
 72
     2
 73
     1
 90
        2
 40
-0.6
 41
30.0
 62
     5
 63
     7
421
 16777215
 74
     1
 91
        4
 64
     7
 65
   257
 75
     1
175
     1
 42
1.0
 92
        0
 66
   257
 43
1.0
 76
     1
 77
     6
 78
     2
 67
     7
 79
     5
170
     0
171
     0
290
     0
174
     0
 93
       13
 44
0.0
173
     0
291
     1
 45
0.0
  0
VISUALSTYLE
  5
38
102
{ACAD_REACTORS
330
2A
102
}
330
2A
100
AcDbVisualStyle
  2
Linepattern
 70
    14
 71
     2
 72
     2
 73
     0
 90
        0
 40
-0.6
 41
-30.0
 62
     5
 63
     7
421
 16777215
 74
     1
 91
        4
 64
     7
 65
   257
 75
     7
175
     7
 42
1.0
 92
        8
 66
     7
 43
1.0
 76
     1
 77
     6
 78
     2
 67
     7
 79
     5
170
     0
171
     0
290
     0
174
     0
 93
        1
 44
0.0
173
     0
291
     1
 45
0.0
  0
VISUALSTYLE
  5
33
102
{ACAD_REACTORS
330
2A
102
}
330
2A
100
AcDbVisualStyle
  2
Realistic
 70
     8
 71
     2
 72
     2
 73
     0
 90
        0
 40
-0.6
 41
-30.0
 62
     5
 63
     7
421
 16777215
 74
     1
 91
        0
 64
     7
 65
   257
 75
     1
175
     1
 42
1.0
 92
        8
 66
     8
424
  7895160
 43
1.0
 76
     1
 77
     6
 78
     2
 67
     7
 79
     5
170
     0
171
     0
290
     0
174
     0
 93
       13
 44
0.0
173
     0
291
     0
 45
0.0
  0
VISUALSTYLE
  5
37
102
{ACAD_REACTORS
330
2A
102
}
330
2A
100
AcDbVisualStyle
  2
Thicken
 70
    13
 71
     2
 72
     2
 73
     0
 90
        0
 40
-0.6
 41
-30.0
 62
     5
 63
     7
421
 16777215
 74
     1
 91
        4
 64
     7
 65
   257
 75
     1
175
     1
 42
1.0
 92
       12
 66
     7
 43
1.0
 76
     1
 77
     6
 78
     2
 67
     7
 79
     5
170
     0
171
     0
290
     0
174
     0
 93
        1
 44
0.0
173
     0
291
     1
 45
0.0
  0
ENDSEC
  0
SECTION
  2
THUMBNAILIMAGE
 90
    16364
310
28000000B40000005500000001000800000000000000000000000000000000000000000000000000FFFFFF000000FF0000FFFF0000FF0000FFFF0000FF000000FF00FF000000000080808000C0C0C0000000FF007F7FFF000000A5005252A50000007F003F3F7F0000004C0026264C000000260013132600003FFF007F9FFF
310
000029A5005267A500001F7F003F4F7F0000134C00262F4C000009260013172600007FFF007FBFFF000052A500527CA500003F7F003F5F7F0000264C0026394C0000132600131C260000BFFF007FDFFF00007CA5005291A500005F7F003F6F7F0000394C0026424C00001C26001321260000FFFF007FFFFF0000A5A50052A5
310
A500007F7F003F7F7F00004C4C00264C4C00002626001326260000FFBF007FFFDF0000A57C0052A59100007F5F003F7F6F00004C3900264C420000261C001326210000FF7F007FFFBF0000A5520052A57C00007F3F003F7F5F00004C2600264C39000026130013261C0000FF3F007FFF9F0000A5290052A56700007F1F003F
310
7F4F00004C1300264C2F00002609001326170000FF00007FFF7F0000A5000052A55200007F00003F7F3F00004C0000264C260000260000132613003FFF00009FFF7F0029A5000067A552001F7F00004F7F3F00134C00002F4C260009260000172613007FFF0000BFFF7F0052A500007CA552003F7F00005F7F3F00264C0000
310
394C2600132600001C261300BFFF0000DFFF7F007CA5000091A552005F7F00006F7F3F00394C0000424C26001C26000021261300FFFF0000FFFF7F00A5A50000A5A552007F7F00007F7F3F004C4C00004C4C26002626000026261300FFBF0000FFDF7F00A57C0000A59152007F5F00007F6F3F004C3900004C422600261C00
310
0026211300FF7F0000FFBF7F00A5520000A57C52007F3F00007F5F3F004C2600004C39260026130000261C1300FF3F0000FF9F7F00A5290000A56752007F1F00007F4F3F004C1300004C2F26002609000026171300FF000000FF7F7F00A5000000A55252007F0000007F3F3F004C0000004C2626002600000026131300FF00
310
3F00FF7F9F00A5002900A55267007F001F007F3F4F004C0013004C262F002600090026131700FF007F00FF7FBF00A5005200A5527C007F003F007F3F5F004C0026004C2639002600130026131C00FF00BF00FF7FDF00A5007C00A55291007F005F007F3F6F004C0039004C26420026001C0026132100FF00FF00FF7FFF00A5
310
00A500A552A5007F007F007F3F7F004C004C004C264C002600260026132600BF00FF00DF7FFF007C00A5009152A5005F007F006F3F7F0039004C0042264C001C002600211326007F00FF00BF7FFF005200A5007C52A5003F007F005F3F7F0026004C0039264C00130026001C1326003F00FF009F7FFF002900A5006752A500
310
1F007F004F3F7F0013004C002F264C000900260017132600000000002D2D2D005B5B5B0089898900B7B7B700B3B3B30007070707070707070707070707070707070707070707070707070707070707070707070707070707070707070707070707070707070707070707070707070707070707070707070707070707070707
310
07070707070707070707070707070707070707070707070707070707070707070707070707070707070707070707070707070707070707070707070707070707070707070707070707070707070707070707070707070707070707070707070707070707070707070707070707070707070707070707070707070707070707
310
07070707070707070707070707070707070707070707070707070707070707070707070707070707070707070707070707070707070707070707070707070707070707070707070707070707070707070707070707070707070707070707070707070707070707070707070707070707070707070707070707070707070707
310
07070707070707070707070707070707070707070707070707070707070707070707070707070707070707070707070707070707070707070707070707070707070707070707070707070707070707070707070707070707070707070707070707070707070707070707070707070707070707070707070707070707070707
310
07070707070707070707070707070707070707070707070707070707070707070707070707070707070707070707070707070707070707070707070707070707070707070707070707070707070707070707070707070707070707070707070707070707070707070707070707070707070707070707070707070707070707
310
07070707070707070707070707070707070707070707070707070707070707070707070707070707070707070707070707070707070707070707070707070707070707070707070707070707070707070707070707070707070707070707070707070707070707070707070707070707070707070707070707070707070707
310
07070707070707070707070707070707070707070707070707070707070707070707070707070707070707070707070707070707070707070707070707070707070707070707070707070707070707070707070707070707070707070707070707070707070707070707070707070707070707070707070707070707070707
310
07070707070707070707070707070707070707070707070707070707070707070707070707070707070707070707070707070707070707070707070707070707070707070707070707070707070707070707070707070707070707070707070707070707070707070707070707070707070707070707070707070707070707
310
07070707070707070707070707070707070707070707070707070707070707070707070707070707070707070707070707070707070707070707070707070707070707070707070707070707070707070707070707070707070707070707070707070707070707070707070707070707070707070707070707070707070707
310
07070707070707070707070707070707070707070707070707070707070707070707070707070707070707070707070707070707070707070707070707070707070707070707070707070707070707070707070707070707070707070707070707070707070707070707070707070707070707070707070707070707070707
310
07070707070707070707070707070707070707070707070707070707070707070707070707070707070707070707070707070707070707070707070707070707070707070707070707070707070707070707070707070707070707070707070707070707070707070707070707070707070707070707070707070707070707
310
07070707070707070707070707070707070707070707070707070707070707070707070707070707070707070707070707070707070707070707070707070707070707070707070707070707070707070707070707070707070707070707070707070707070707070707070707070707070707070707070707070707070707
310
07070707070707070707070707070707070707070707070707070707070707070707070707070707070707070707070707070707070707070707070707070707070707070707070707070707070707070707070707070707070707070707070707070707070707070707070707070707070707070707070707070707070707
310
07070707070707070707070707070707070707070707070707070707070707070707070707070707070707070707070707070707070707070707070707070707070707070707070707070707070707070707070707070707070707070707070707070707070707070707070707070707070707070707070707070707070707
310
07070707070707070707070707070707070707070707070707070707070707070707070707070707070707070707070707070707070707070707070707070707070707070707070707070707070707070707070707070707070707070707070707070707070707070707070707070707070707070707070707070707070707
310
07070707070707070707070707070707070707070707070707070707070707070707070707070707070707070707070707070707070707070707070707070707070707070707070707070707070707070707070707070707070707070707070707070707070707070707070707070707070707070707070707070707070707
310
07070707070707070707070707070707070707070707070707070707070707070707070707070707070707070707070707070707070707070707070707070707070707070707070707070707070707070707070707070707070707070707070707070707070707070707070707070707070707070707070707070707070707
310
07070707070707070707070707070707070707070707070707070707070707070707070707070707070707070707070707070707070707070707070707070707070707070707070707070707070707070707070707070707070707070707070707070707070707070707070707070707070707070707070707070707070707
310
07070707070707070707070707070707070707070707070707070707070707070707070707070707070707070707070707070707070707070707070707070707070707070707070707070707070707070707070707070707070707070707070707070707070707070707070707070707070707070707070707070707070707
310
07070707070707070707070707070707070707070707070707070707070707070707070707070707070707070707070707070707070707070707070707070707070707070707070707070707070707070707070707070707070707070707070707070707070707070707070707070707070707070707070707070707070707
310
07070707070707070707070707070707070707070707070707070707070707070707070707070707070707070707070707070707070707070707070707070707070707070707070707070707070707070707070707070707070707070707070707070707070707070707070707070707070707070707070707070707070707
310
07070707070707070707070707070707070707070707070707070707070707070707070707070707070707070707070707070707070707070707070707070707070707070707070707070707070707070707070707070707070707070707070707070707070707070707070707070707070707070707070707070707070707
310
07070707070707070707070707070707070707070707070707070707070707070707070707070707070707070707070707070707070707070707070707070707070707070707070707070707070707070707070707070707070707070707070707070707070707070707070707070707070707070707070707070707070707
310
07070707070707070707070707070707070707070707070707070707070707070707070707070707070707070707070707070707070707070707070707070707070707070707070707070707070707070707070707070707070707070707070707070707070707070707070707070707070707070707070707070707070707
310
07070707070707070707070707070707070707070707070707070707070707070707070707070707070707070707070707070707070707070707070707070707070707070707070707070707070707070707070707070707070707070707070707070707070707070707070707070707070707070707070707070707070707
310
07070707070707070707070707070707070707070707070707070707070707070707070707070707070707070707070707070707070707070707070707070707070707070707070707070707070707070707070707070707070707070707070707070707070707070707070707070707070707070707070707070707070707
310
07070707070707070707070707070707070707070707070707070707070707070707070707070707070707070707070707070707070707070707070707070707070707070707070707070707070707070707070707070707070707070707070707070707070707070707070707070707070707070707070707070707070707
310
07070707070707070707070707070707070707070707070707070707070707070707070707070707070707070707070707070707070707070707070707070707070707070707070707070707070707070707070707070707070707070707070707070707070707070707070707070707070707070707070707070707070707
310
07070707070707070707070707070707070707070707070707070707070707070707070707070707070707070707070707070707070707070707070707070707070707070707070707070707070707070707070707070707070707070707070707070707070707070707070707070707070707070707070707070707070707
310
07070707070707070707070707070707070707070707070707070707070707070707070707070707070707070707070707070707070707070707070707070707070707070707070707070707070707070707070707070707070707070707070707070707070707070707070707070707070707070707070707070707070707
310
07070707070707070707070707070707070707070707070707070707070707070707070707070707070707070707070707070707070707070707070707070707070707070707070707070707070707070707070707070707070707070707070707070707070707070707070707070707070707070707070707070707070707
310
07070707070707070707070707070707070707070707070707070707070707070707070707070707070707070707070707070707070707070707070707070707070707070707070707070707070707070707070707070707070707070707070707070707070707070707070707070707070707070707070707070707070707
310
07070707070707070707070707070707070707070707070707070707070707070707070707070707070707070707070707070707070707070707070707070707070707070707070707070707070707070707070707070707070707070707070707070707070707070707070707070707070707070707070707070707070707
310
07070707070707070707070707070707070707070707070707070707070707070707070707070707070707070707070707070707070707070707070707070707070707070707070707070707070707070707070707070707070707070707070707070707070707070707070707070707070707070707070707070707070707
310
07070707070707070707070707070707070707070707070707070707070707070707070707070707070707070707070707070707070707070707070707070707070707070707070707070707070707070707070707070707070707070707070707070707070707070707070707070707070707070707070707070707070707
310
07070707070707070707070707070707070707070707070707070707070707070707070707070707070707070707070707070707070707070707070707070707070707070707070707070707070707070707070707070707070707070707070707070707070707070707070707070707070707070707070707070707070707
310
07070707070707070707070707070707070707070707070707070707070707070707070707070707070707070707070707070707070707070707070707070707070707070707070707070707070707070707070707070707070707070707070707070707070707070707070707070707070707070707070707070707070707
310
07070707070707070707070707070707070707070707070707070707070707070707070707070707070707070707070707070707070707070707070707070707070707070707070707070707070707070707070707070707070707070707070707070707070707070707070707070707070707070707070707070707070707
310
07070707070707070707070707070707070707070707070707070707070707070707070707070707070707070707070707070707070707070707070707070707070707070707070707070707070707070707070707070707070707070707070707070707070707070707070707070707070707070707070707070707070707
310
07070707070707070707070707070707070707070707070707070707070707070707070707070707070707070707070707070707070707070707070707070707070707070707070707070707070707070707070707070707070707070707070707070707070707070707070707070707070707070707070707070707070707
310
07070707070707070707070707070707070707070707070707070707070707070707070707070707070707070707070707070707070707070707070707070707070707070707070707070707070707070707070707070707070707070707070707070707070707070707070707070707070707070707070707070707070707
310
07070707070707070707070707070707070707070707070707070707070707070707070707070707070707070707070707070707070707070707070707070707070707070707070707070707070707070707070707070707070707070707070707070707070707070707070707070707070707070707070707070707070707
310
07070707070707070707070707070707070707070707070707070707070707070707070707070707070707070707070707070707070707070707070707070707070707070707070707070707070707070707070707070707070707070707070707070707070707070707070707070707070707070707070707070707070707
310
07070707070707070707070707070707070707070707070707070707070707070707070707070707070707070707070707070707070707070707070707070707070707070707070707070707070707070707070707070707070707070707070707070707070707070707070707070707070707070707070707070707070707
310
07070707070707070707070707070707070707070707070707070707070707070707070707070707070707070707070707070707070707070707070707070707070707070707070707070707070707070707070707070707070707070707070707070707070707070707070707070707070707070707070707070707070707
310
07070707070707070707070707070707070707070707070707070707070707070707070707070707070707070707070707070707070707070707070707070707070707070707070707070707070707070707070707070707070707070707070707070707070707070707070707070707070707070707070707070707070707
310
07070707070707070707070707070707070707070707070707070707070707070707070707070707070707070707070707070707070707070707070707070707070707070707070707070707070707070707070707070707070707070707070707070707070707070707070707070707070707070707070707070707070707
310
07070707070707070707070707070707070707070707070707070707070707070707070707070707070707070707070707070707070707070707070707070707070707070707070707070707070707070707070707070707070707070707070707070707070707070707070707070707070707070707070707070707070707
310
07070707070707070707070707070707070707070707070707070707070707070707070707070707070707070707070707070707070707070707070707070707070707070707070707070707070707070707070707070707070707070707070707070707070707070707070707070707070707070707070707070707070707
310
07070707070707070707070707070707070707070707070707070707070707070707070707070707070707070707070707070707070707070707070707070707070707070707070707070707070707070707070707070707070707070707070707070707070707070707070707070707070707070707070707070707070707
310
07070707070707070707070707070707070707070707070707070707070707070707070707070707070707070707070707070707070707070707070707070707070707070707070707070707070707070707070707070707070707070707070707070707070707070707070707070707070707070707070707070707070707
310
07070707070707070707070707070707070707070707070707070707070707070707070707070707070707070707070707070707070707070707070707070707070707070707070707070707070707070707070707070707070707070707070707070707070707070707070707070707070707070707070707070707070707
310
07070707070707070707070707070707070707070707070707070707070707070707070707070707070707070707070707070707070707070707070707070707070707070707070707070707070707070707070707070707070707070707070707070707070707070707070707070707070707070707070707070707070707
310
07070707070707070707070707070707070707070707070707070707070707070707070707070707070707070707070707070707070707070707070707070707070707070707070707070707070707070707070707070707070707070707070707070707070707070707070707070707070707070707070707070707070707
310
07070707070707070707070707070707070707070707070707070707070707070707070707070707070707070707070707070707070707070707070707070707070707070707070707070707070707070707070707070707070707070707070707070707070707070707070707070707070707070707070707070707070707
310
07070707070707070707070707070707070707070707070707070707070707070707070707070707070707070707070707070707070707070707070707070707070707070707070707070707070707070707070707070707070707070707070707070707070707070707070707070707070707070707070707070707070707
310
07070707070707070707070707070707070707070707070707070707070707070707070707070707070707070707070707070707070707070707070707070707070707070707070707070707070707070707070707070707070707070707070707070707070707070707070707070707070707070707070707070707070707
310
07070707070707070707070707070707070707070707070707070707070707070707070707070707070707070707070707070707070707070707070707070707070707070707070707070707070707070707070707070707070707070707070707070707070707070707070707070707070707070707070707070707070707
310
07070707070707070707070707070707070707070707070707070707070707070707070707070707070707070707070707070707070707070707070707070707070707070707070707070707070707070707070707070707070707070707070707070707070707070707070707070707070707070707070707070707070707
310
07070707070707070707070707070707070707070707070707070707070707070707070707070707070707070707070707070707070707070707070707070707070707070707070707070707070707070707070707070707070707070707070707070707070707070707070707070707070707070707070707070707070707
310
07070707070707070707070707070707070707070707070707070707070707070707070707070707070707070707070707070707070707070707070707070707070707070707070707070707070707070707070707070707070707070707070707070707070707070707070707070707070707070707070707070707070707
310
07070707070707070707070707070707070707070707070707070707070707070707070707070707070707070707070707070707070707070707070707070707070707070707070707070707070707070707070707070707070707070707070707070707070707070707070707070707070707070707070707070707070707
310
07070707070707070707070707070707070707070707070707070707070707070707070707070707070707070707070707070707070707070707070707070707070707070707070707070707070707070707070707070707070707070707070707070707070707070707070707070707070707070707070707070707070707
310
07070707070707070707070707070707070707070707070707070707070707070707070707070707070707070707070707070707070707070707070707070707070707070707070707070707070707070707070707070707070707070707070707070707070707070707070707070707070707070707070707070707070707
310
07070707070707070707070707070707070707070707070707070707070707070707070707070707070707070707070707070707070707070707070707070707070707070707070707070707070707070707070707070707070707070707070707070707070707070707070707070707070707070707070707070707070707
310
07070707070707070707070707070707070707070707070707070707070707070707070707070707070707070707070707070707070707070707070707070707070707070707070707070707070707070707070707070707070707070707070707070707070707070707070707070707070707070707070707070707070707
310
07070707070707070707070707070707070707070707070707070707070707070707070707070707070707070707070707070707070707070707070707070707070707070707070707070707070707070707070707070707070707070707070707070707070707070707070707070707070707070707070707070707070707
310
07070707070707070707070707070707070707070707070707070707070707070707070707070707070707070707070707070707070707070707070707070707070707070707070707070707070707070707070707070707070707070707070707070707070707070707070707070707070707070707070707070707070707
310
07070707070707070707070707070707070707070707070707070707070707070707070707070707070707070707070707070707070707070707070707070707070707070707070707070707070707070707070707070707070707070707070707070707070707070707070707070707070707070707070707070707070707
310
07070707070707070707070707070707070707070707070707070707070707070707070707070707070707070707070707070707070707070707070707070707070707070707070707070707070707070707070707070707070707070707070707070707070707070707070707070707070707070707070707070707070707
310
07070707070707070707070707070707070707070707070707070707070707070707070707070707070707070707070707070707070707070707070707070707070707070707070707070707070707070707070707070707070707070707070707070707070707070707070707070707070707070707070707070707070707
310
07070707070707070707070707070707070707070707070707070707070707070707070707070707070707070707070707070707070707070707070707070707070707070707070707070707070707070707070707070707070707070707070707070707070707070707070707070707070707070707070707070707070707
310
07070707070707070707070707070707070707070707070707070707070707070707070707070707070707070707070707070707070707070707070707070707070707070707070707070707070707070707070707070707070707070707070707070707070707070707070707070707070707070707070707070707070707
310
07070707070707070707070707070707070707070707070707070707070707070707070707070707070707070707070707070707070707070707070707070707070707070707070707070707070707070707070707070707070707070707070707070707070707070707070707070707070707070707070707070707070707
310
07070707070707070707070707070707070707070707070707070707070707070707070707070707070707070707070707070707070707070707070707070707070707070707070707070707070707070707070707070707070707070707070707070707070707070707070707070707070707070707070707070707070707
310
07070707070707070707070707070707070707070707070707070707070707070707070707070707070707070707070707070707070707070707070707070707070707070707070707070707070707070707070707070707070707070707070707070707070707070707070707070707070707070707070707070707070707
310
07070707070707070707070707070707070707070707070707070707070707070707070707070707070707070707070707070707070707070707070707070707070707070707070707070707070707070707070707070707070707070707070707070707070707070707070707070707070707070707070707070707070707
310
07070707070707070707070707070707070707070707070707070707070707070707070707070707070707070707070707070707070707070707070707070707070707070707070707070707070707070707070707070707070707070707070707070707070707070707070707070707070707070707070707070707070707
310
07070707070707070707070707070707070707070707070707070707070707070707070707070707070707070707070707070707070707070707070707070707070707070707070707070707070707070707070707070707070707070707070707070707070707070707070707070707070707070707070707070707070707
310
07070707070707070707070707070707070707070707070707070707070707070707070707070707070707070707070707070707070707070707070707070707070707070707070707070707070707070707070707070707070707070707070707070707070707070707070707070707070707070707070707070707070707
310
07070707070707070707070707070707070707070707070707070707070707070707070707070707070707070707070707070707070707070707070707070707070707070707070707070707070707070707070707070707070707070707070707070707070707070707070707070707070707070707070707070707070707
310
07070707070707070707070707070707070707070707070707070707070707070707070707070707070707070707070707070707070707070707070707070707070707070707070707070707070707070707070707070707070707070707070707070707070707070707070707070707070707070707070707070707070707
310
07070707070707070707070707070707070707070707070707070707070707070707070707070707070707070707070707070707070707070707070707070707070707070707070707070707070707070707070707070707070707070707070707070707070707070707070707070707070707070707070707070707070707
310
07070707070707070707070707070707070707070707070707070707070707070707070707070707070707070707070707070707070707070707070707070707070707070707070707070707070707070707070707070707070707070707070707070707070707070707070707070707070707070707070707070707070707
310
07070707070707070707070707070707070707070707070707070707070707070707070707070707070707070707070707070707070707070707070707070707070707070707070707070707070707070707070707070707070707070707070707070707070707070707070707070707070707070707070707070707070707
310
07070707070707070707070707070707070707070707070707070707070707070707070707070707070707070707070707070707070707070707070707070707070707070707070707070707070707070707070707070707070707070707070707070707070707070707070707070707070707070707070707070707070707
310
07070707070707070707070707070707070707070707070707070707070707070707070707070707070707070707070707070707070707070707070707070707070707070707070707070707070707070707070707070707070707070707070707070707070707070707070707070707070707070707070707070707070707
310
07070707070707070707070707070707070707070707070707070707070707070707070707070707070707070707070707070707070707070707070707070707070707070707070707070707070707070707070707070707070707070707070707070707070707070707070707070707070707070707070707070707070707
310
07070707070707070707070707070707070707070707070707070707070707070707070707070707070707070707070707070707070707070707070707070707070707070707070707070707070707070707070707070707070707070707070707070707070707070707070707070707070707070707070707070707070707
310
07070707070707070707070707070707070707070707070707070707070707070707070707070707070707070707070707070707070707070707070707070707070707070707070707070707070707070707070707070707070707070707070707070707070707070707070707070707070707070707070707070707070707
310
07070707070707070707070707070707070707070707070707070707070707070707070707070707070707070707070707070707070707070707070707070707070707070707070707070707070707070707070707070707070707070707070707070707070707070707070707070707070707070707070707070707070707
310
07070707070707070707070707070707070707070707070707070707070707070707070707070707070707070707070707070707070707070707070707070707070707070707070707070707070707070707070707070707070707070707070707070707070707070707070707070707070707070707070707070707070707
310
07070707070707070707070707070707070707070707070707070707070707070707070707070707070707070707070707070707070707070707070707070707070707070707070707070707070707070707070707070707070707070707070707070707070707070707070707070707070707070707070707070707070707
310
07070707070707070707070707070707070707070707070707070707070707070707070707070707070707070707070707070707070707070707070707070707070707070707070707070707070707070707070707070707070707070707070707070707070707070707070707070707070707070707070707070707070707
310
07070707070707070707070707070707070707070707070707070707070707070707070707070707070707070707070707070707070707070707070707070707070707070707070707070707070707070707070707070707070707070707070707070707070707070707070707070707070707070707070707070707070707
310
07070707070707070707070707070707070707070707070707070707070707070707070707070707070707070707070707070707070707070707070707070707070707070707070707070707070707070707070707070707070707070707070707070707070707070707070707070707070707070707070707070707070707
310
07070707070707070707070707070707070707070707070707070707070707070707070707070707070707070707070707070707070707070707070707070707070707070707070707070707070707070707070707070707070707070707070707070707070707070707070707070707070707070707070707070707070707
310
07070707070707070707070707070707070707070707070707070707070707070707070707070707070707070707070707070707070707070707070707070707070707070707070707070707070707070707070707070707070707070707070707070707070707070707070707070707070707070707070707070707070707
310
07070707070707070707070707070707070707070707070707070707070707070707070707070707070707070707070707070707070707070707070707070707070707070707070707070707070707070707070707070707070707070707070707070707070707070707070707070707070707070707070707070707070707
310
07070707070707070707070707070707070707070707070707070707070707070707070707070707070707070707070707070707070707070707070707070707070707070707070707070707070707070707070707070707070707070707070707070707070707070707070707070707070707070707070707070707070707
310
07070707070707070707070707070707070707070707070707070707070707070707070707070707070707070707070707070707070707070707070707070707070707070707070707070707070707070707070707070707070707070707070707070707070707070707070707070707070707070707070707070707070707
310
07070707070707070707070707070707070707070707070707070707070707070707070707070707070707070707070707070707070707070707070707070707070707070707070707070707070707070707070707070707070707070707070707070707070707070707070707070707070707070707070707070707070707
310
07070707070707070707070707070707070707070707070707070707070707070707070707070707070707070707070707070707070707070707070707070707070707070707070707070707070707070707070707070707070707070707070707070707070707070707070707070707070707070707070707070707070707
310
07070707070707070707070707070707070707070707070707070707070707070707070707070707070707070707070707070707070707070707070707070707070707070707070707070707070707070707070707070707070707070707070707070707070707070707070707070707070707070707070707070707070707
310
07070707070707070707070707070707070707070707070707070707070707070707070707070707070707070707070707070707070707070707070707070707070707070707070707070707070707070707070707070707070707070707070707070707070707070707070707070707070707070707070707070707070707
310
07070707070707070707070707070707070707070707070707070707070707070707070707070707070707070707070707070707070707070707070707070707070707070707070707070707070707070707070707070707070707070707070707070707070707070707070707070707070707070707070707070707070707
310
07070707070707070707070707070707070707070707070707070707070707070707070707070707070707070707070707070707070707070707070707070707070707070707070707070707070707070707070707070707070707070707070707070707070707070707070707070707070707070707070707070707070707
310
07070707070707070707070707070707070707070707070707070707070707070707070707070707070707070707070707070707070707070707070707070707070707070707070707070707070707070707070707070707070707070707070707070707070707070707070707070707070707070707070707070707070707
310
07070707070707070707070707070707070707070707070707070707070707070707070707070707070707070707070707070707070707070707070707070707070707070707070707070707070707070707070707070707070707070707070707070707070707070707070707070707070707070707070707070707070707
310
07070707070707070707070707070707070707070707070707070707070707070707070707070707070707070707070707070707070707070707070707070707070707070707070707070707070707070707070707070707070707070707070707070707070707070707070707070707070707070707070707070707070707
310
07070707070707070707070707070707070707070707070707070707070707070707070707070707070707070707070707070707070707070707070707070707070707070707070707070707070707070707070707070707070707070707070707070707070707070707070707070707070707070707070707070707070707
310
07070707070707070707070707070707070707070707070707070707070707070707070707070707070707070707070707070707070707070707070707070707070707070707070707070707070707070707070707070707070707070707070707070707070707070707070707070707070707070707070707070707070707
310
07070707070707070707070707070707070707070707070707070707070707070707070707070707070707070707070707070707070707070707070707070707070707070707070707070707070707070707070707070707070707070707070707070707070707070707070707070707070707070707070707070707070707
310
07070707070707070707070707070707070707070707070707070707070707070707070707070707070707070707070707070707070707070707070707070707070707070707070707070707070707070707070707070707070707070707070707070707070707070707070707070707070707070707070707070707070707
310
07070707070707070707070707070707070707070707070707070707070707070707070707070707070707070707070707070707070707070707070707070707070707070707070707070707070707070707070707070707070707070707070707070707070707070707070707070707070707070707070707070707070707
310
07070707070707070707070707070707070707070707070707070707070707070707070707070707070707070707070707070707070707070707070707070707070707070707070707070707070707070707070707070707070707070707070707070707070707070707070707070707070707070707070707070707070707
310
07070707070707070707070707070707070707070707070707070707070707070707070707070707070707070707070707070707070707070707070707070707070707070707070707070707070707070707070707070707070707070707070707070707070707070707070707070707070707070707070707070707070707
310
07070707070707070707070707070707070707070707070707070707070707070707070707070707070707070707070707070707070707070707070707070707070707070707070707070707070707070707070707070707070707070707070707070707070707070707070707070707070707070707070707070707070707
310
07070707070707070707070707070707070707070707070707070707070707070707070707070707070707070707070707070707070707070707070707070707070707070707070707070707070707070707070707070707070707070707070707070707070707070707070707070707070707070707070707070707070707
310
07070707070707070707070707070707070707070707070707070707070707070707070707070707070707070707070707070707070707070707070707070707070707070707070707070707070707070707070707070707070707070707070707070707070707070707070707070707070707070707070707070707070707
310
070707070707070707070707070707070707070707070707070707070707070707070707070707070707070707070707070707070707070707070707070707070707070707070707070707070707070707070707070707070707070707070707070707070707070707070707
  0
ENDSEC
  0
EOF
