  0
SECTION
  2
HEADER
  9
$ACADVER
  1
AC1021
  9
$ACADMAINTVER
 70
    25
  9
$DWGCODEPAGE
  3
ANSI_1252
  9
$INSBASE
 10
0.0
 20
0.0
 30
0.0
  9
$EXTMIN
 10
-2225.583220052922
 20
-464.6194353773251
 30
-0.0000000000000205
  9
$EXTMAX
 10
3781.15402313682
 20
2056.526718261204
 30
0.0
  9
$LIMMIN
 10
0.0
 20
0.0
  9
$LIMMAX
 10
297.0
 20
210.0
  9
$ORTHOMODE
 70
     0
  9
$REGENMODE
 70
     1
  9
$FILLMODE
 70
     1
  9
$QTEXTMODE
 70
     0
  9
$MIRRTEXT
 70
     0
  9
$LTSCALE
 40
1.0
  9
$ATTMODE
 70
     1
  9
$TEXTSIZE
 40
5.0
  9
$TRACEWID
 40
1.0
  9
$TEXTSTYLE
  7
Standard
  9
$CLAYER
  8
0
  9
$CELTYPE
  6
ByLayer
  9
$CECOLOR
 62
     7
  9
$CELTSCALE
 40
1.0
  9
$DISPSILH
 70
     0
  9
$DIMSCALE
 40
1.0
  9
$DIMASZ
 40
3.0
  9
$DIMEXO
 40
1.0
  9
$DIMDLI
 40
7.5
  9
$DIMRND
 40
0.01
  9
$DIMDLE
 40
0.0
  9
$DIMEXE
 40
2.0
  9
$DIMTP
 40
0.0
  9
$DIMTM
 40
0.0
  9
$DIMTXT
 40
100.0
  9
$DIMCEN
 40
0.09
  9
$DIMTSZ
 40
0.0
  9
$DIMTOL
 70
     0
  9
$DIMLIM
 70
     0
  9
$DIMTIH
 70
     0
  9
$DIMTOH
 70
     0
  9
$DIMSE1
 70
     0
  9
$DIMSE2
 70
     0
  9
$DIMTAD
 70
     1
  9
$DIMZIN
 70
     8
  9
$DIMBLK
  1

  9
$DIMASO
 70
     1
  9
$DIMSHO
 70
     1
  9
$DIMPOST
  1

  9
$DIMAPOST
  1

  9
$DIMALT
 70
     0
  9
$DIMALTD
 70
     2
  9
$DIMALTF
 40
1.0
  9
$DIMLFAC
 40
1.0
  9
$DIMTOFL
 70
     1
  9
$DIMTVP
 40
0.0
  9
$DIMTIX
 70
     0
  9
$DIMSOXD
 70
     0
  9
$DIMSAH
 70
     0
  9
$DIMBLK1
  1

  9
$DIMBLK2
  1

  9
$DIMSTYLE
  2
Standard
  9
$DIMCLRD
 70
     7
  9
$DIMCLRE
 70
     7
  9
$DIMCLRT
 70
     7
  9
$DIMTFAC
 40
1.0
  9
$DIMGAP
 40
2.0
  9
$DIMJUST
 70
     0
  9
$DIMSD1
 70
     0
  9
$DIMSD2
 70
     0
  9
$DIMTOLJ
 70
     1
  9
$DIMTZIN
 70
     0
  9
$DIMALTZ
 70
     0
  9
$DIMALTTZ
 70
     0
  9
$DIMUPT
 70
     0
  9
$DIMDEC
 70
     4
  9
$DIMTDEC
 70
     4
  9
$DIMALTU
 70
     2
  9
$DIMALTTD
 70
     2
  9
$DIMTXSTY
  7
Standard
  9
$DIMAUNIT
 70
     0
  9
$DIMADEC
 70
     0
  9
$DIMALTRND
 40
0.0
  9
$DIMAZIN
 70
     0
  9
$DIMDSEP
 70
    46
  9
$DIMATFIT
 70
     3
  9
$DIMFRAC
 70
     0
  9
$DIMLDRBLK
  1

  9
$DIMLUNIT
 70
     2
  9
$DIMLWD
 70
    -2
  9
$DIMLWE
 70
    -2
  9
$DIMTMOVE
 70
     0
  9
$DIMFXL
 40
1.0
  9
$DIMFXLON
 70
     0
  9
$DIMJOGANG
 40
0.7853981633974483
  9
$DIMTFILL
 70
     0
  9
$DIMTFILLCLR
 70
     0
  9
$DIMARCSYM
 70
     0
  9
$DIMLTYPE
  6

  9
$DIMLTEX1
  6

  9
$DIMLTEX2
  6

  9
$LUNITS
 70
     2
  9
$LUPREC
 70
     2
  9
$SKETCHINC
 40
1.0
  9
$FILLETRAD
 40
4.0
  9
$AUNITS
 70
     0
  9
$AUPREC
 70
     2
  9
$MENU
  1
.
  9
$ELEVATION
 40
0.0
  9
$PELEVATION
 40
0.0
  9
$THICKNESS
 40
0.0
  9
$LIMCHECK
 70
     0
  9
$CHAMFERA
 40
0.5
  9
$CHAMFERB
 40
0.5
  9
$CHAMFERC
 40
1.0
  9
$CHAMFERD
 40
0.0
  9
$SKPOLY
 70
     0
  9
$TDCREATE
 40
2455397.476681956
  9
$TDUCREATE
 40
2455397.101681956
  9
$TDUPDATE
 40
2455397.476681968
  9
$TDUUPDATE
 40
2455397.101681968
  9
$TDINDWG
 40
0.0
  9
$TDUSRTIMER
 40
0.0
  9
$USRTIMER
 70
     1
  9
$ANGBASE
 50
0.0
  9
$ANGDIR
 70
     0
  9
$PDMODE
 70
     0
  9
$PDSIZE
 40
0.0
  9
$PLINEWID
 40
0.0
  9
$SPLFRAME
 70
     0
  9
$SPLINETYPE
 70
     5
  9
$SPLINESEGS
 70
    20
  9
$HANDSEED
  5
21C
  9
$SURFTAB1
 70
     6
  9
$SURFTAB2
 70
     6
  9
$SURFTYPE
 70
     6
  9
$SURFU
 70
     6
  9
$SURFV
 70
     6
  9
$UCSBASE
  2

  9
$UCSNAME
  2

  9
$UCSORG
 10
0.0
 20
0.0
 30
0.0
  9
$UCSXDIR
 10
1.0
 20
0.0
 30
0.0
  9
$UCSYDIR
 10
0.0
 20
1.0
 30
0.0
  9
$UCSORTHOREF
  2

  9
$UCSORTHOVIEW
 70
     0
  9
$UCSORGTOP
 10
0.0
 20
0.0
 30
0.0
  9
$UCSORGBOTTOM
 10
0.0
 20
0.0
 30
0.0
  9
$UCSORGLEFT
 10
0.0
 20
0.0
 30
0.0
  9
$UCSORGRIGHT
 10
0.0
 20
0.0
 30
0.0
  9
$UCSORGFRONT
 10
0.0
 20
0.0
 30
0.0
  9
$UCSORGBACK
 10
0.0
 20
0.0
 30
0.0
  9
$PUCSBASE
  2

  9
$PUCSNAME
  2

  9
$PUCSORG
 10
0.0
 20
0.0
 30
0.0
  9
$PUCSXDIR
 10
1.0
 20
0.0
 30
0.0
  9
$PUCSYDIR
 10
0.0
 20
1.0
 30
0.0
  9
$PUCSORTHOREF
  2

  9
$PUCSORTHOVIEW
 70
     0
  9
$PUCSORGTOP
 10
0.0
 20
0.0
 30
0.0
  9
$PUCSORGBOTTOM
 10
0.0
 20
0.0
 30
0.0
  9
$PUCSORGLEFT
 10
0.0
 20
0.0
 30
0.0
  9
$PUCSORGRIGHT
 10
0.0
 20
0.0
 30
0.0
  9
$PUCSORGFRONT
 10
0.0
 20
0.0
 30
0.0
  9
$PUCSORGBACK
 10
0.0
 20
0.0
 30
0.0
  9
$USERI1
 70
     0
  9
$USERI2
 70
     0
  9
$USERI3
 70
     0
  9
$USERI4
 70
     0
  9
$USERI5
 70
     0
  9
$USERR1
 40
0.0
  9
$USERR2
 40
0.0
  9
$USERR3
 40
0.0
  9
$USERR4
 40
0.0
  9
$USERR5
 40
0.0
  9
$WORLDVIEW
 70
     1
  9
$SHADEDGE
 70
     3
  9
$SHADEDIF
 70
    70
  9
$TILEMODE
 70
     0
  9
$MAXACTVP
 70
    64
  9
$PINSBASE
 10
0.0
 20
0.0
 30
0.0
  9
$PLIMCHECK
 70
     0
  9
$PEXTMIN
 10
0.0
 20
0.0
 30
0.0
  9
$PEXTMAX
 10
297.0
 20
210.0
 30
0.0
  9
$PLIMMIN
 10
0.0
 20
0.0
  9
$PLIMMAX
 10
297.0
 20
210.0
  9
$UNITMODE
 70
     0
  9
$VISRETAIN
 70
     1
  9
$PLINEGEN
 70
     0
  9
$PSLTSCALE
 70
     1
  9
$TREEDEPTH
 70
  3020
  9
$CMLSTYLE
  2
Standard
  9
$CMLJUST
 70
     0
  9
$CMLSCALE
 40
1.0
  9
$PROXYGRAPHICS
 70
     1
  9
$MEASUREMENT
 70
     1
  9
$CELWEIGHT
370
    -1
  9
$ENDCAPS
280
     0
  9
$JOINSTYLE
280
     0
  9
$LWDISPLAY
290
     0
  9
$INSUNITS
 70
     1
  9
$HYPERLINKBASE
  1

  9
$STYLESHEET
  1

  9
$XEDIT
290
     1
  9
$CEPSNTYPE
380
     0
  9
$PSTYLEMODE
290
     1
  9
$FINGERPRINTGUID
  2
{967AFFA5-09EE-48C2-BD27-432554999ADB}
  9
$VERSIONGUID
  2
{FAEB1C32-E019-11D5-929B-00C0DF256EC4}
  9
$EXTNAMES
290
     1
  9
$PSVPSCALE
 40
0.0
  9
$OLESTARTUP
290
     0
  9
$SORTENTS
280
   127
  9
$INDEXCTL
280
     0
  9
$HIDETEXT
280
     1
  9
$XCLIPFRAME
290
     0
  9
$HALOGAP
280
     0
  9
$OBSCOLOR
 70
   257
  9
$OBSLTYPE
280
     0
  9
$INTERSECTIONDISPLAY
280
     0
  9
$INTERSECTIONCOLOR
 70
   257
  9
$DIMASSOC
280
     2
  9
$PROJECTNAME
  1

  9
$CAMERADISPLAY
290
     0
  9
$LENSLENGTH
 40
50.0
  9
$CAMERAHEIGHT
 40
0.0
  9
$STEPSPERSEC
 40
2.0
  9
$STEPSIZE
 40
6.0
  9
$3DDWFPREC
 40
2.0
  9
$PSOLWIDTH
 40
0.25
  9
$PSOLHEIGHT
 40
4.0
  9
$LOFTANG1
 40
1.570796326794897
  9
$LOFTANG2
 40
1.570796326794897
  9
$LOFTMAG1
 40
0.0
  9
$LOFTMAG2
 40
0.0
  9
$LOFTPARAM
 70
     7
  9
$LOFTNORMALS
280
     1
  9
$LATITUDE
 40
37.795
  9
$LONGITUDE
 40
-122.394
  9
$NORTHDIRECTION
 40
0.0
  9
$TIMEZONE
 70
 -8000
  9
$LIGHTGLYPHDISPLAY
280
     1
  9
$TILEMODELIGHTSYNCH
280
     1
  9
$SOLIDHIST
280
     1
  9
$SHOWHIST
280
     1
  9
$DWFFRAME
280
     2
  9
$DGNFRAME
280
     2
  9
$REALWORLDSCALE
290
     1
  9
$INTERFERECOLOR
 62
   256
  9
$CSHADOW
280
     0
  9
$SHADOWPLANELOCATION
 40
0.0
  0
ENDSEC
  0
SECTION
  2
CLASSES
  0
CLASS
  1
ACDBDICTIONARYWDFLT
  2
AcDbDictionaryWithDefault
  3
ObjectDBX Classes
 90
        0
 91
        4
280
     0
281
     0
  0
CLASS
  1
VISUALSTYLE
  2
AcDbVisualStyle
  3
ObjectDBX Classes
 90
     4095
 91
        4
280
     0
281
     0
  0
CLASS
  1
SCALE
  2
AcDbScale
  3
ObjectDBX Classes
 90
        0
 91
        4
280
     0
281
     0
  0
CLASS
  1
TABLESTYLE
  2
AcDbTableStyle
  3
ObjectDBX Classes
 90
     4095
 91
        3
280
     0
281
     0
  0
CLASS
  1
TCOPTIONALDATA
  2
TcOptionalData
  3
ExTcadCustObjs|Description: TurboCAD extension data object
 90
        0
 91
        3
280
     0
281
     0
  0
ENDSEC
  0
SECTION
  2
TABLES
  0
TABLE
  2
VPORT
  5
8
330
0
100
AcDbSymbolTable
 70
     1
  0
VPORT
  5
29
330
8
100
AcDbSymbolTableRecord
100
AcDbViewportTableRecord
  2
*Active
 70
     0
 10
0.0
 20
0.0
 11
1.0
 21
1.0
 12
0.0
 22
0.0
 13
0.0
 23
0.0
 14
5.0
 24
5.0
 15
5.0
 25
5.0
 16
0.0
 26
0.0
 36
1.0
 17
494.1551071554825
 27
-3638.532657327798
 37
0.0
 40
13313.91476510904
 41
1.272838002436054
 42
50.0
 43
0.0
 44
0.0
 50
0.0
 51
0.0
 71
     0
 72
   100
 73
     1
 74
     3
 75
     0
 76
     0
 77
     0
 78
     0
281
     0
 65
     1
110
0.0
120
0.0
130
0.0
111
1.0
121
0.0
131
0.0
112
0.0
122
1.0
132
0.0
 79
     0
146
0.0
 60
     3
 61
     5
292
     1
282
     1
141
0.0
142
0.0
 63
   256
  0
ENDTAB
  0
TABLE
  2
LTYPE
  5
5
330
0
100
AcDbSymbolTable
 70
    13
  0
LTYPE
  5
14
330
5
100
AcDbSymbolTableRecord
100
AcDbLinetypeTableRecord
  2
ByBlock
 70
     0
  3

 72
    65
 73
     0
 40
0.0
  0
LTYPE
  5
15
330
5
100
AcDbSymbolTableRecord
100
AcDbLinetypeTableRecord
  2
ByLayer
 70
     0
  3

 72
    65
 73
     0
 40
0.0
  0
LTYPE
  5
16
330
5
100
AcDbSymbolTableRecord
100
AcDbLinetypeTableRecord
  2
Continuous
 70
     0
  3
Solid line
 72
    65
 73
     0
 40
0.0
  0
LTYPE
  5
5E
330
5
100
AcDbSymbolTableRecord
100
AcDbLinetypeTableRecord
  2
BORDER
 70
     0
  3
BORDER
 72
    65
 73
     6
 40
1.75
 49
0.5
 74
     0
 49
-0.25
 74
     0
 49
0.5
 74
     0
 49
-0.25
 74
     0
 49
0.0
 74
     0
 49
-0.25
 74
     0
  0
LTYPE
  5
5F
330
5
100
AcDbSymbolTableRecord
100
AcDbLinetypeTableRecord
  2
CENTER
 70
     0
  3
CENTER
 72
    65
 73
     4
 40
2.0
 49
1.25
 74
     0
 49
-0.25
 74
     0
 49
0.25
 74
     0
 49
-0.25
 74
     0
  0
LTYPE
  5
60
330
5
100
AcDbSymbolTableRecord
100
AcDbLinetypeTableRecord
  2
DASHDOT
 70
     0
  3
DASHDOT
 72
    65
 73
     4
 40
1.0
 49
0.5
 74
     0
 49
-0.25
 74
     0
 49
0.0
 74
     0
 49
-0.25
 74
     0
  0
LTYPE
  5
61
330
5
100
AcDbSymbolTableRecord
100
AcDbLinetypeTableRecord
  2
DASHED
 70
     0
  3
DASHED
 72
    65
 73
     2
 40
0.75
 49
0.5
 74
     0
 49
-0.25
 74
     0
  0
LTYPE
  5
62
330
5
100
AcDbSymbolTableRecord
100
AcDbLinetypeTableRecord
  2
DIVIDE
 70
     0
  3
DIVIDE
 72
    65
 73
     6
 40
1.25
 49
0.5
 74
     0
 49
-0.25
 74
     0
 49
0.0
 74
     0
 49
-0.25
 74
     0
 49
0.0
 74
     0
 49
-0.25
 74
     0
  0
LTYPE
  5
63
330
5
100
AcDbSymbolTableRecord
100
AcDbLinetypeTableRecord
  2
DOT
 70
     0
  3
DOT
 72
    65
 73
     2
 40
0.25
 49
0.0
 74
     0
 49
-0.25
 74
     0
  0
LTYPE
  5
64
330
5
100
AcDbSymbolTableRecord
100
AcDbLinetypeTableRecord
  2
HIDDEN
 70
     0
  3
HIDDEN
 72
    65
 73
     2
 40
0.375
 49
0.25
 74
     0
 49
-0.125
 74
     0
  0
LTYPE
  5
65
330
5
100
AcDbSymbolTableRecord
100
AcDbLinetypeTableRecord
  2
PHANTOM
 70
     0
  3
PHANTOM
 72
    65
 73
     6
 40
2.5
 49
1.25
 74
     0
 49
-0.25
 74
     0
 49
0.25
 74
     0
 49
-0.25
 74
     0
 49
0.25
 74
     0
 49
-0.25
 74
     0
  0
LTYPE
  5
66
330
5
100
AcDbSymbolTableRecord
100
AcDbLinetypeTableRecord
  2
$INVISIBLE
 70
     0
  3
$INVISIBLE
 72
    65
 73
     2
 40
200.0
 49
-100.0
 74
     0
 49
-100.0
 74
     0
  0
LTYPE
  5
67
330
5
100
AcDbSymbolTableRecord
100
AcDbLinetypeTableRecord
  2
$SNAPEXT
 70
     0
  3
$SNAPEXT
 72
    65
 73
     2
 40
0.04
 49
0.02
 74
     0
 49
-0.02
 74
     0
  0
LTYPE
  5
68
330
5
100
AcDbSymbolTableRecord
100
AcDbLinetypeTableRecord
  2
$CONSTRUCTION
 70
     0
  3
$CONSTRUCTION
 72
    65
 73
     4
 40
0.3
 49
0.2
 74
     0
 49
-0.05
 74
     0
 49
0.0
 74
     0
 49
-0.05
 74
     0
  0
LTYPE
  5
69
330
5
100
AcDbSymbolTableRecord
100
AcDbLinetypeTableRecord
  2
$AUXILIARY
 70
     0
  3
$AUXILIARY
 72
    65
 73
     2
 40
0.1
 49
0.05
 74
     0
 49
-0.05
 74
     0
  0
ENDTAB
  0
TABLE
  2
LAYER
  5
2
330
0
100
AcDbSymbolTable
 70
     4
  0
LAYER
  5
10
330
2
100
AcDbSymbolTableRecord
100
AcDbLayerTableRecord
  2
0
 70
     0
 62
     7
  6
Continuous
370
     0
390
F
347
0
  0
LAYER
  5
6A
330
2
100
AcDbSymbolTableRecord
100
AcDbLayerTableRecord
  2
$CONSTRUCTION
 70
     0
 62
   254
420
 12572888
  6
$CONSTRUCTION
370
     0
390
F
347
0
  0
LAYER
  5
6B
330
2
100
AcDbSymbolTableRecord
100
AcDbLayerTableRecord
  2
Layer_1
 70
     0
 62
     7
  6
Continuous
370
     0
390
F
347
0
  0
LAYER
  5
F9
330
2
100
AcDbSymbolTableRecord
100
AcDbLayerTableRecord
  2
Defpoints
 70
     0
 62
     7
  6
Continuous
290
     0
370
    -3
390
F
347
0
  0
ENDTAB
  0
TABLE
  2
STYLE
  5
3
330
0
100
AcDbSymbolTable
 70
     2
  0
STYLE
  5
11
330
3
100
AcDbSymbolTableRecord
100
AcDbTextStyleTableRecord
  2
Standard
 70
     0
 40
0.0
 41
1.0
 50
0.0
 71
     0
 42
0.2
  3
txt
  4

  0
STYLE
  5
6F
330
3
100
AcDbSymbolTableRecord
100
AcDbTextStyleTableRecord
  2
_TCW_TXTSTY_1
 70
     0
 40
0.0
 41
1.0
 50
0.0
 71
     0
 42
0.78125
  3

  4

1001
ACAD
1000
ＭＳ ゴシック
1071
    32802
  0
ENDTAB
  0
TABLE
  2
VIEW
  5
6
330
0
100
AcDbSymbolTable
 70
     2
  0
VIEW
  5
6C
330
6
100
AcDbSymbolTableRecord
100
AcDbViewTableRecord
  2
表示_0
 70
     0
 40
210.0
 10
148.5
 20
105.0
 41
297.0
 11
0.0
 21
0.0
 31
1.0
 12
0.0
 22
0.0
 32
0.0
 42
50.0
 43
0.0
 44
0.0
 50
0.0
 71
     0
281
     0
 72
     0
 73
     0
  0
VIEW
  5
6D
330
6
100
AcDbSymbolTableRecord
100
AcDbViewTableRecord
  2
全体図
 70
     0
 40
3405.508040137015
 10
348.6591573375408
 20
2716.2980789674
 41
6486.681981213362
 11
0.0
 21
0.0
 31
1.0
 12
494.1551071554825
 22
-1974.293311689168
 32
0.0
 42
50.0
 43
0.0
 44
0.0
 50
0.0
 71
     0
281
     0
 72
     0
 73
     0
  0
ENDTAB
  0
TABLE
  2
UCS
  5
7
330
0
100
AcDbSymbolTable
 70
     0
  0
ENDTAB
  0
TABLE
  2
APPID
  5
9
330
0
100
AcDbSymbolTable
 70
     2
  0
APPID
  5
12
330
9
100
AcDbSymbolTableRecord
100
AcDbRegAppTableRecord
  2
ACAD
 70
     0
  0
APPID
  5
5D
330
9
100
AcDbSymbolTableRecord
100
AcDbRegAppTableRecord
  2
TCAD
 70
     0
  0
ENDTAB
  0
TABLE
  2
DIMSTYLE
  5
A
330
0
100
AcDbSymbolTable
 70
     2
100
AcDbDimStyleTable
  0
DIMSTYLE
105
27
330
A
100
AcDbSymbolTableRecord
100
AcDbDimStyleTableRecord
  2
Standard
 70
     0
340
11
  0
DIMSTYLE
105
6E
102
{ACAD_REACTORS
330
F8
330
108
330
117
330
12F
330
14B
330
15A
102
}
330
A
100
AcDbSymbolTableRecord
100
AcDbDimStyleTableRecord
  2
標準寸法
 70
     0
 41
3.0
 42
1.0
 43
7.5
 44
2.0
 45
0.01
 73
     0
 74
     0
 77
     1
 78
     8
140
78.125
143
1.0
147
2.0
148
0.01
172
     1
176
     7
177
     7
178
     7
179
     2
271
     2
272
     8
340
6F
  0
ENDTAB
  0
TABLE
  2
BLOCK_RECORD
  5
1
330
0
100
AcDbSymbolTable
 70
     7
  0
BLOCK_RECORD
  5
1F
330
1
100
AcDbSymbolTableRecord
100
AcDbBlockTableRecord
  2
*Model_Space
340
22
 70
     0
280
     1
281
     0
  0
BLOCK_RECORD
  5
1B
330
1
100
AcDbSymbolTableRecord
100
AcDbBlockTableRecord
  2
*Paper_Space
340
1E
 70
     0
280
     1
281
     0
  0
BLOCK_RECORD
  5
FA
330
1
100
AcDbSymbolTableRecord
100
AcDbBlockTableRecord
  2
*D1
340
0
 70
     0
280
     1
281
     0
  0
BLOCK_RECORD
  5
109
330
1
100
AcDbSymbolTableRecord
100
AcDbBlockTableRecord
  2
*D2
340
0
 70
     0
280
     1
281
     0
  0
BLOCK_RECORD
  5
118
330
1
100
AcDbSymbolTableRecord
100
AcDbBlockTableRecord
  2
*D3
340
0
 70
     0
280
     1
281
     0
  0
BLOCK_RECORD
  5
130
330
1
100
AcDbSymbolTableRecord
100
AcDbBlockTableRecord
  2
*D4
340
0
 70
     0
280
     1
281
     0
  0
BLOCK_RECORD
  5
14C
330
1
100
AcDbSymbolTableRecord
100
AcDbBlockTableRecord
  2
*D5
340
0
 70
     0
280
     1
281
     0
  0
BLOCK_RECORD
  5
15B
330
1
100
AcDbSymbolTableRecord
100
AcDbBlockTableRecord
  2
*D6
340
0
 70
     0
280
     1
281
     0
  0
ENDTAB
  0
ENDSEC
  0
SECTION
  2
BLOCKS
  0
BLOCK
  5
20
330
1F
100
AcDbEntity
  8
0
100
AcDbBlockBegin
  2
*Model_Space
 70
     0
 10
0.0
 20
0.0
 30
0.0
  3
*Model_Space
  1

  0
ENDBLK
  5
21
330
1F
100
AcDbEntity
  8
0
100
AcDbBlockEnd
  0
BLOCK
  5
1C
330
1B
100
AcDbEntity
 67
     1
  8
0
100
AcDbBlockBegin
  2
*Paper_Space
 70
     0
 10
0.0
 20
0.0
 30
0.0
  3
*Paper_Space
  1

  0
ENDBLK
  5
1D
330
1B
100
AcDbEntity
 67
     1
  8
0
100
AcDbBlockEnd
  0
BLOCK
  5
104
330
FA
100
AcDbEntity
  8
0
100
AcDbBlockBegin
  2
*D1
 70
     1
 10
0.0
 20
0.0
 30
0.0
  3
*D1
  1

  0
LINE
  5
FB
330
FA
100
AcDbEntity
  8
0
  6
Continuous
 62
     7
370
    -2
100
AcDbLine
 10
736.9487426318483
 20
1185.160930716691
 30
0.0
 11
1065.628089240162
 21
1185.160930716691
 31
0.0
  0
LINE
  5
FC
330
FA
100
AcDbEntity
  8
0
  6
Continuous
 62
     7
370
    -2
100
AcDbLine
 10
736.9487426318485
 20
105.1609307166909
 30
0.0
 11
1065.628089240162
 21
105.1609307166909
 31
0.0
  0
LINE
  5
FD
330
FA
100
AcDbEntity
  8
0
  6
Continuous
 62
     7
370
    -2
100
AcDbLine
 10
1063.628089240162
 20
1182.160930716691
 30
0.0
 11
1063.628089240162
 21
108.1609307166909
 31
0.0
  0
SOLID
  5
FE
330
FA
100
AcDbEntity
  8
0
 62
     7
100
AcDbTrace
 10
1064.128089240162
 20
1182.160930716691
 30
0.0
 11
1063.128089240162
 21
1182.160930716691
 31
0.0
 12
1063.628089240162
 22
1185.160930716691
 32
0.0
 13
1063.628089240162
 23
1185.160930716691
 33
0.0
  0
SOLID
  5
FF
330
FA
100
AcDbEntity
  8
0
 62
     7
100
AcDbTrace
 10
1063.128089240162
 20
108.1609307166909
 30
0.0
 11
1064.128089240162
 21
108.1609307166909
 31
0.0
 12
1063.628089240162
 22
105.1609307166909
 32
0.0
 13
1063.628089240162
 23
105.1609307166909
 33
0.0
  0
MTEXT
  5
100
330
FA
100
AcDbEntity
  8
0
 62
     7
100
AcDbMText
 10
948.9848600734957
 20
645.1609307166909
 30
0.0
 40
78.125
 41
0.0
 46
0.0
 71
     5
 72
     1
  1
\A1;1020 (240L)\P  910(200L)
  7
_TCW_TXTSTY_1
 11
0.0
 21
1.0
 31
0.0
 73
     1
 44
1.0
  0
POINT
  5
101
330
FA
100
AcDbEntity
  8
Defpoints
 62
     0
100
AcDbPoint
 10
735.9487426318483
 20
1185.160930716691
 30
0.0
  0
POINT
  5
102
330
FA
100
AcDbEntity
  8
Defpoints
 62
     0
100
AcDbPoint
 10
735.9487426318485
 20
105.1609307166909
 30
0.0
  0
POINT
  5
103
330
FA
100
AcDbEntity
  8
Defpoints
 62
     0
100
AcDbPoint
 10
1063.628089240162
 20
105.1609307166909
 30
0.0
  0
ENDBLK
  5
105
330
FA
100
AcDbEntity
  8
0
100
AcDbBlockEnd
  0
BLOCK
  5
113
330
109
100
AcDbEntity
  8
0
100
AcDbBlockBegin
  2
*D2
 70
     1
 10
0.0
 20
0.0
 30
0.0
  3
*D2
  1

  0
LINE
  5
10A
330
109
100
AcDbEntity
  8
0
  6
Continuous
 62
     7
370
    -2
100
AcDbLine
 10
625.2537525564961
 20
-294.839069283309
 30
0.0
 11
846.0036173754524
 21
-294.839069283309
 31
0.0
  0
LINE
  5
10B
330
109
100
AcDbEntity
  8
0
  6
Continuous
 62
     7
370
    -2
100
AcDbLine
 10
625.2537525564962
 20
105.1609307166909
 30
0.0
 11
846.0036173754524
 21
105.1609307166909
 31
0.0
  0
LINE
  5
10C
330
109
100
AcDbEntity
  8
0
  6
Continuous
 62
     7
370
    -2
100
AcDbLine
 10
844.0036173754524
 20
-291.839069283309
 30
0.0
 11
844.0036173754524
 21
102.1609307166909
 31
0.0
  0
SOLID
  5
10D
330
109
100
AcDbEntity
  8
0
 62
     7
100
AcDbTrace
 10
843.5036173754524
 20
-291.839069283309
 30
0.0
 11
844.5036173754524
 21
-291.839069283309
 31
0.0
 12
844.0036173754524
 22
-294.839069283309
 32
0.0
 13
844.0036173754524
 23
-294.839069283309
 33
0.0
  0
SOLID
  5
10E
330
109
100
AcDbEntity
  8
0
 62
     7
100
AcDbTrace
 10
844.5036173754524
 20
102.1609307166909
 30
0.0
 11
843.5036173754524
 21
102.1609307166909
 31
0.0
 12
844.0036173754524
 22
105.1609307166909
 32
0.0
 13
844.0036173754524
 23
105.1609307166909
 33
0.0
  0
MTEXT
  5
10F
330
109
100
AcDbEntity
  8
0
 62
     7
100
AcDbMText
 10
802.9411173754524
 20
-94.83906928330907
 30
0.0
 40
78.125
 41
0.0
 46
0.0
 71
     5
 72
     1
  1
\A1;400
  7
_TCW_TXTSTY_1
 11
0.0
 21
1.0
 31
0.0
 73
     1
 44
1.0
  0
POINT
  5
110
330
109
100
AcDbEntity
  8
Defpoints
 62
     0
100
AcDbPoint
 10
624.2537525564961
 20
-294.839069283309
 30
0.0
  0
POINT
  5
111
330
109
100
AcDbEntity
  8
Defpoints
 62
     0
100
AcDbPoint
 10
624.2537525564962
 20
105.1609307166909
 30
0.0
  0
POINT
  5
112
330
109
100
AcDbEntity
  8
Defpoints
 62
     0
100
AcDbPoint
 10
844.0036173754524
 20
105.1609307166909
 30
0.0
  0
ENDBLK
  5
114
330
109
100
AcDbEntity
  8
0
100
AcDbBlockEnd
  0
BLOCK
  5
122
330
118
100
AcDbEntity
  8
0
100
AcDbBlockBegin
  2
*D3
 70
     1
 10
0.0
 20
0.0
 30
0.0
  3
*D3
  1

  0
LINE
  5
119
330
118
100
AcDbEntity
  8
0
  6
Continuous
 62
     7
370
    -2
100
AcDbLine
 10
111.9029223936978
 20
360.1292934745929
 30
0.0
 11
111.9029223936978
 21
1514.086860507613
 31
0.0
  0
LINE
  5
11A
330
118
100
AcDbEntity
  8
0
  6
Continuous
 62
     7
370
    -2
100
AcDbLine
 10
646.3327904190936
 20
360.1292934745929
 30
0.0
 11
646.3327904190936
 21
1514.086860507613
 31
0.0
  0
LINE
  5
11B
330
118
100
AcDbEntity
  8
0
  6
Continuous
 62
     7
370
    -2
100
AcDbLine
 10
114.9029223936978
 20
1512.086860507613
 30
0.0
 11
643.3327904190936
 21
1512.086860507613
 31
0.0
  0
SOLID
  5
11C
330
118
100
AcDbEntity
  8
0
 62
     7
100
AcDbTrace
 10
114.9029223936978
 20
1512.586860507613
 30
0.0
 11
114.9029223936978
 21
1511.586860507613
 31
0.0
 12
111.9029223936978
 22
1512.086860507613
 32
0.0
 13
111.9029223936978
 23
1512.086860507613
 33
0.0
  0
SOLID
  5
11D
330
118
100
AcDbEntity
  8
0
 62
     7
100
AcDbTrace
 10
643.3327904190936
 20
1511.586860507613
 30
0.0
 11
643.3327904190936
 21
1512.586860507613
 31
0.0
 12
646.3327904190936
 22
1512.086860507613
 32
0.0
 13
646.3327904190936
 23
1512.086860507613
 33
0.0
  0
MTEXT
  5
11E
330
118
100
AcDbEntity
  8
0
 62
     7
100
AcDbMText
 10
379.1178564063957
 20
1559.282173007613
 30
0.0
 40
78.125
 41
0.0
 46
0.0
 71
     5
 72
     1
  1
\A1;550 内径\P
  7
_TCW_TXTSTY_1
 73
     1
 44
1.0
  0
POINT
  5
11F
330
118
100
AcDbEntity
  8
Defpoints
 62
     0
100
AcDbPoint
 10
111.9029223936978
 20
359.1292934745929
 30
0.0
  0
POINT
  5
120
330
118
100
AcDbEntity
  8
Defpoints
 62
     0
100
AcDbPoint
 10
646.3327904190936
 20
359.1292934745929
 30
0.0
  0
POINT
  5
121
330
118
100
AcDbEntity
  8
Defpoints
 62
     0
100
AcDbPoint
 10
646.3327904190936
 20
1512.086860507613
 30
0.0
  0
ENDBLK
  5
123
330
118
100
AcDbEntity
  8
0
100
AcDbBlockEnd
  0
BLOCK
  5
13A
330
130
100
AcDbEntity
  8
0
100
AcDbBlockBegin
  2
*D4
 70
     1
 10
0.0
 20
0.0
 30
0.0
  3
*D4
  1

  0
LINE
  5
131
330
130
100
AcDbEntity
  8
0
  6
Continuous
 62
     7
370
    -2
100
AcDbLine
 10
84.85200589879072
 20
1176.387564493089
 30
0.0
 11
84.85200589879071
 21
1834.566269042454
 31
0.0
  0
LINE
  5
132
330
130
100
AcDbEntity
  8
0
  6
Continuous
 62
     7
370
    -2
100
AcDbLine
 10
674.0149029040399
 20
1177.435897050038
 30
0.0
 11
674.0149029040399
 21
1834.566269042454
 31
0.0
  0
LINE
  5
133
330
130
100
AcDbEntity
  8
0
  6
Continuous
 62
     7
370
    -2
100
AcDbLine
 10
87.85200589879071
 20
1832.566269042454
 30
0.0
 11
671.0149029040399
 21
1832.566269042454
 31
0.0
  0
SOLID
  5
134
330
130
100
AcDbEntity
  8
0
 62
     7
100
AcDbTrace
 10
87.85200589879071
 20
1833.066269042454
 30
0.0
 11
87.85200589879071
 21
1832.066269042454
 31
0.0
 12
84.85200589879071
 22
1832.566269042454
 32
0.0
 13
84.85200589879071
 23
1832.566269042454
 33
0.0
  0
SOLID
  5
135
330
130
100
AcDbEntity
  8
0
 62
     7
100
AcDbTrace
 10
671.0149029040399
 20
1832.066269042454
 30
0.0
 11
671.0149029040399
 21
1833.066269042454
 31
0.0
 12
674.0149029040399
 22
1832.566269042454
 32
0.0
 13
674.0149029040399
 23
1832.566269042454
 33
0.0
  0
MTEXT
  5
136
330
130
100
AcDbEntity
  8
0
 62
     7
100
AcDbMText
 10
379.4334544014153
 20
1873.628769042454
 30
0.0
 40
78.125
 41
0.0
 46
0.0
 71
     5
 72
     1
  1
\A1;590\P
  7
_TCW_TXTSTY_1
 73
     1
 44
1.0
  0
POINT
  5
137
330
130
100
AcDbEntity
  8
Defpoints
 62
     0
100
AcDbPoint
 10
84.85200589879072
 20
1175.387564493089
 30
0.0
  0
POINT
  5
138
330
130
100
AcDbEntity
  8
Defpoints
 62
     0
100
AcDbPoint
 10
674.0149029040399
 20
1176.435897050038
 30
0.0
  0
POINT
  5
139
330
130
100
AcDbEntity
  8
Defpoints
 62
     0
100
AcDbPoint
 10
674.0149029040399
 20
1832.566269042454
 30
0.0
  0
ENDBLK
  5
13B
330
130
100
AcDbEntity
  8
0
100
AcDbBlockEnd
  0
BLOCK
  5
156
330
14C
100
AcDbEntity
  8
0
100
AcDbBlockBegin
  2
*D5
 70
     1
 10
0.0
 20
0.0
 30
0.0
  3
*D5
  1

  0
LINE
  5
14D
330
14C
100
AcDbEntity
  8
0
  6
Continuous
 62
     7
370
    -2
100
AcDbLine
 10
379.9900605610792
 20
-294.8390692833091
 30
0.0
 11
498.9288119631266
 21
-294.8390692833091
 31
0.0
  0
LINE
  5
14E
330
14C
100
AcDbEntity
  8
0
  6
Continuous
 62
     7
370
    -2
100
AcDbLine
 10
379.9900605610792
 20
170.160930716691
 30
0.0
 11
498.9288119631267
 21
170.160930716691
 31
0.0
  0
LINE
  5
14F
330
14C
100
AcDbEntity
  8
0
  6
Continuous
 62
     7
370
    -2
100
AcDbLine
 10
496.9288119631266
 20
-291.8390692833091
 30
0.0
 11
496.9288119631267
 21
167.160930716691
 31
0.0
  0
SOLID
  5
150
330
14C
100
AcDbEntity
  8
0
 62
     7
100
AcDbTrace
 10
496.4288119631266
 20
-291.8390692833091
 30
0.0
 11
497.4288119631266
 21
-291.8390692833091
 31
0.0
 12
496.9288119631266
 22
-294.8390692833091
 32
0.0
 13
496.9288119631266
 23
-294.8390692833091
 33
0.0
  0
SOLID
  5
151
330
14C
100
AcDbEntity
  8
0
 62
     7
100
AcDbTrace
 10
497.4288119631267
 20
167.160930716691
 30
0.0
 11
496.4288119631267
 21
167.160930716691
 31
0.0
 12
496.9288119631267
 22
170.160930716691
 32
0.0
 13
496.9288119631267
 23
170.160930716691
 33
0.0
  0
MTEXT
  5
152
330
14C
100
AcDbEntity
  8
0
 62
     7
100
AcDbMText
 10
455.8663119631267
 20
-62.33906928330907
 30
0.0
 40
78.125
 41
0.0
 46
0.0
 71
     5
 72
     1
  1
\A1;585
  7
_TCW_TXTSTY_1
 11
1.222439115286194E-16
 21
1.0
 31
0.0
 73
     1
 44
1.0
  0
POINT
  5
153
330
14C
100
AcDbEntity
  8
Defpoints
 62
     0
100
AcDbPoint
 10
378.9900605610792
 20
-294.8390692833091
 30
0.0
  0
POINT
  5
154
330
14C
100
AcDbEntity
  8
Defpoints
 62
     0
100
AcDbPoint
 10
378.9900605610792
 20
170.160930716691
 30
0.0
  0
POINT
  5
155
330
14C
100
AcDbEntity
  8
Defpoints
 62
     0
100
AcDbPoint
 10
496.9288119631267
 20
170.160930716691
 30
0.0
  0
ENDBLK
  5
157
330
14C
100
AcDbEntity
  8
0
100
AcDbBlockEnd
  0
BLOCK
  5
165
330
15B
100
AcDbEntity
  8
0
100
AcDbBlockBegin
  2
*D6
 70
     1
 10
0.0
 20
0.0
 30
0.0
  3
*D6
  1

  0
LINE
  5
15C
330
15B
100
AcDbEntity
  8
0
  6
Continuous
 62
     7
370
    -2
100
AcDbLine
 10
625.2537525564961
 20
-294.839069283309
 30
0.0
 11
1755.321777782858
 21
-294.8390692833091
 31
0.0
  0
LINE
  5
15D
330
15B
100
AcDbEntity
  8
0
  6
Continuous
 62
     7
370
    -2
100
AcDbLine
 10
703.5843211042014
 20
1185.160930716691
 30
0.0
 11
1755.321777782858
 21
1185.160930716691
 31
0.0
  0
LINE
  5
15E
330
15B
100
AcDbEntity
  8
0
  6
Continuous
 62
     7
370
    -2
100
AcDbLine
 10
1753.321777782858
 20
-291.8390692833091
 30
0.0
 11
1753.321777782858
 21
1182.160930716691
 31
0.0
  0
SOLID
  5
15F
330
15B
100
AcDbEntity
  8
0
 62
     7
100
AcDbTrace
 10
1752.821777782858
 20
-291.8390692833091
 30
0.0
 11
1753.821777782858
 21
-291.8390692833091
 31
0.0
 12
1753.321777782858
 22
-294.8390692833091
 32
0.0
 13
1753.321777782858
 23
-294.8390692833091
 33
0.0
  0
SOLID
  5
160
330
15B
100
AcDbEntity
  8
0
 62
     7
100
AcDbTrace
 10
1753.821777782858
 20
1182.160930716691
 30
0.0
 11
1752.821777782858
 21
1182.160930716691
 31
0.0
 12
1753.321777782858
 22
1185.160930716691
 32
0.0
 13
1753.321777782858
 23
1185.160930716691
 33
0.0
  0
MTEXT
  5
161
330
15B
100
AcDbEntity
  8
0
 62
     7
100
AcDbMText
 10
1638.678548616191
 20
445.1609307166909
 30
0.0
 40
78.125
 41
0.0
 46
0.0
 71
     5
 72
     1
  1
\A1;1420(240L)\P1310(200L)\P
  7
_TCW_TXTSTY_1
 11
0.0
 21
1.0
 31
0.0
 73
     1
 44
1.0
  0
POINT
  5
162
330
15B
100
AcDbEntity
  8
Defpoints
 62
     0
100
AcDbPoint
 10
624.2537525564961
 20
-294.839069283309
 30
0.0
  0
POINT
  5
163
330
15B
100
AcDbEntity
  8
Defpoints
 62
     0
100
AcDbPoint
 10
702.5843211042014
 20
1185.160930716691
 30
0.0
  0
POINT
  5
164
330
15B
100
AcDbEntity
  8
Defpoints
 62
     0
100
AcDbPoint
 10
1753.321777782858
 20
1185.160930716691
 30
0.0
  0
ENDBLK
  5
166
330
15B
100
AcDbEntity
  8
0
100
AcDbBlockEnd
  0
ENDSEC
  0
SECTION
  2
ENTITIES
  0
LINE
  5
74
102
{ACAD_XDICTIONARY
360
72
102
}
330
1F
100
AcDbEntity
  8
0
  6
Continuous
 62
     7
370
     0
100
AcDbLine
 10
641.4900605610792
 20
105.1609307166909
 30
0.0
 11
648.9900605610792
 21
141.1609307166912
 31
0.0
  0
LINE
  5
77
102
{ACAD_XDICTIONARY
360
75
102
}
330
1F
100
AcDbEntity
  8
0
  6
Continuous
 62
     7
370
     0
100
AcDbLine
 10
667.4900605610791
 20
141.160930716691
 30
0.0
 11
667.4900605610794
 21
120.160930716691
 31
0.0
  0
LINE
  5
7A
102
{ACAD_XDICTIONARY
360
78
102
}
330
1F
100
AcDbEntity
  8
0
  6
Continuous
 62
     7
370
     0
100
AcDbLine
 10
671.4900605610792
 20
120.1609307166911
 30
0.0
 11
671.4900605610792
 21
141.1609307166911
 31
0.0
  0
LINE
  5
7D
102
{ACAD_XDICTIONARY
360
7B
102
}
330
1F
100
AcDbEntity
  8
0
  6
Continuous
 62
     7
370
     0
100
AcDbLine
 10
667.4900605610794
 20
145.160930716691
 30
0.0
 11
652.9900605610792
 21
145.1609307166909
 31
0.0
  0
LINE
  5
80
102
{ACAD_XDICTIONARY
360
7E
102
}
330
1F
100
AcDbEntity
  8
0
  6
Continuous
 62
     7
370
     0
100
AcDbLine
 10
652.9900605610792
 20
145.1609307166909
 30
0.0
 11
652.9900605610793
 21
1165.160930716691
 31
0.0
  0
LINE
  5
83
102
{ACAD_XDICTIONARY
360
81
102
}
330
1F
100
AcDbEntity
  8
0
  6
Continuous
 62
     7
370
     0
100
AcDbLine
 10
116.4900605610792
 20
105.1609307166909
 30
0.0
 11
108.9900605610792
 21
141.1609307166912
 31
0.0
  0
LINE
  5
86
102
{ACAD_XDICTIONARY
360
84
102
}
330
1F
100
AcDbEntity
  8
0
  6
Continuous
 62
     7
370
     0
100
AcDbLine
 10
90.4900605610793
 20
141.160930716691
 30
0.0
 11
108.9900605610793
 21
141.160930716691
 31
0.0
  0
LINE
  5
89
102
{ACAD_XDICTIONARY
360
87
102
}
330
1F
100
AcDbEntity
  8
0
  6
Continuous
 62
     7
370
     0
100
AcDbLine
 10
90.49006056107896
 20
120.160930716691
 30
0.0
 11
90.49006056107896
 21
120.160930716691
 31
0.0
  0
LINE
  5
8C
102
{ACAD_XDICTIONARY
360
8A
102
}
330
1F
100
AcDbEntity
  8
0
  6
Continuous
 62
     7
370
     0
100
AcDbLine
 10
90.4900605610793
 20
141.160930716691
 30
0.0
 11
90.49006056107896
 21
120.160930716691
 31
0.0
  0
LINE
  5
8F
102
{ACAD_XDICTIONARY
360
8D
102
}
330
1F
100
AcDbEntity
  8
0
  6
Continuous
 62
     7
370
     0
100
AcDbLine
 10
86.4900605610792
 20
120.1609307166911
 30
0.0
 11
86.4900605610792
 21
145.160930716691
 31
0.0
  0
LINE
  5
92
102
{ACAD_XDICTIONARY
360
90
102
}
330
1F
100
AcDbEntity
  8
0
  6
Continuous
 62
     7
370
     0
100
AcDbLine
 10
104.9900605610792
 20
145.1609307166909
 30
0.0
 11
86.49006056107919
 21
145.160930716691
 31
0.0
  0
LINE
  5
95
102
{ACAD_XDICTIONARY
360
93
102
}
330
1F
100
AcDbEntity
  8
0
  6
Continuous
 62
     7
370
     0
100
AcDbLine
 10
104.9900605610792
 20
145.1609307166909
 30
0.0
 11
104.9900605610792
 21
1165.160930716691
 31
0.0
  0
LINE
  5
98
102
{ACAD_XDICTIONARY
360
96
102
}
330
1F
100
AcDbEntity
  8
0
  6
Continuous
 62
     7
370
     0
100
AcDbLine
 10
116.4900605610792
 20
105.160930716691
 30
0.0
 11
641.4900605610792
 21
105.1609307166909
 31
0.0
  0
LWPOLYLINE
  5
9B
102
{ACAD_XDICTIONARY
360
99
102
}
330
1F
100
AcDbEntity
  8
0
  6
Continuous
 62
     7
370
     0
100
AcDbPolyline
 90
        4
 70
   129
 43
0.0
 10
86.4900605610792
 20
105.160930716691
 10
671.4900605610792
 20
105.160930716691
 10
671.4900605610792
 20
170.160930716691
 10
86.4900605610792
 20
170.160930716691
  0
LINE
  5
9E
102
{ACAD_XDICTIONARY
360
9C
102
}
330
1F
100
AcDbEntity
  8
0
  6
Continuous
 62
     7
370
     0
100
AcDbLine
 10
560.4566740957952
 20
170.1609307166909
 30
0.0
 11
560.4566740957953
 21
-294.8390692833091
 31
0.0
  0
LINE
  5
A1
102
{ACAD_XDICTIONARY
360
9F
102
}
330
1F
100
AcDbEntity
  8
0
  6
Continuous
 62
     7
370
     0
100
AcDbLine
 10
558.4341650736366
 20
-294.8390692833091
 30
0.0
 11
588.310195281828
 21
-294.8390692833091
 31
0.0
  0
LINE
  5
A4
102
{ACAD_XDICTIONARY
360
A2
102
}
330
1F
100
AcDbEntity
  8
0
  6
Continuous
 62
     7
370
     0
100
AcDbLine
 10
590.3327043039869
 20
170.1609307166909
 30
0.0
 11
590.3327043039869
 21
-294.8390692833091
 31
0.0
  0
LINE
  5
A7
102
{ACAD_XDICTIONARY
360
A5
102
}
330
1F
100
AcDbEntity
  8
0
  6
Continuous
 62
     7
370
     0
100
AcDbLine
 10
573.3721801777323
 20
-294.8390692833091
 30
0.0
 11
607.2932284302416
 21
-294.8390692833091
 31
0.0
  0
LINE
  5
AA
102
{ACAD_XDICTIONARY
360
A8
102
}
330
1F
100
AcDbEntity
  8
0
  6
Continuous
 62
     7
370
     0
100
AcDbLine
 10
624.2537525564962
 20
170.1609307166909
 30
0.0
 11
624.253752556496
 21
-294.8390692833091
 31
0.0
  0
LINE
  5
AD
102
{ACAD_XDICTIONARY
360
AB
102
}
330
1F
100
AcDbEntity
  8
0
  6
Continuous
 62
     7
370
     0
100
AcDbLine
 10
205.4332484086274
 20
170.160930716691
 30
0.0
 11
205.4332484086276
 21
-294.839069283309
 31
0.0
  0
LINE
  5
B0
102
{ACAD_XDICTIONARY
360
AE
102
}
330
1F
100
AcDbEntity
  8
0
  6
Continuous
 62
     7
370
     0
100
AcDbLine
 10
205.4533324232415
 20
-294.8390692833091
 30
0.0
 11
176.3315360748237
 21
-294.8390692833091
 31
0.0
  0
LINE
  5
B3
102
{ACAD_XDICTIONARY
360
B1
102
}
330
1F
100
AcDbEntity
  8
0
  6
Continuous
 62
     7
370
     0
100
AcDbLine
 10
176.3114520602101
 20
-294.839069283309
 30
0.0
 11
176.31145206021
 21
170.160930716691
 31
0.0
  0
LINE
  5
B6
102
{ACAD_XDICTIONARY
360
B4
102
}
330
1F
100
AcDbEntity
  8
0
  6
Continuous
 62
     7
370
     0
100
AcDbLine
 10
133.5311891049378
 20
170.160930716691
 30
0.0
 11
133.531189104938
 21
-294.839069283309
 31
0.0
  0
LINE
  5
B9
102
{ACAD_XDICTIONARY
360
B7
102
}
330
1F
100
AcDbEntity
  8
0
  6
Continuous
 62
     7
370
     0
100
AcDbLine
 10
135.9556609523885
 20
-294.8390692833091
 30
0.0
 11
178.7359239076603
 21
-294.8390692833091
 31
0.0
  0
LINE
  5
BC
102
{ACAD_XDICTIONARY
360
BA
102
}
330
1F
100
AcDbEntity
  8
0
  6
Continuous
 62
     7
370
     0
100
AcDbLine
 10
652.990060561079
 20
1165.160930716691
 30
0.0
 11
667.4900605610794
 21
1165.160930716691
 31
0.0
  0
LINE
  5
BF
102
{ACAD_XDICTIONARY
360
BD
102
}
330
1F
100
AcDbEntity
  8
0
  6
Continuous
 62
     7
370
     0
100
AcDbLine
 10
667.4900605610792
 20
1165.160930716691
 30
0.0
 11
667.4900605610792
 21
1155.160930716691
 31
0.0
  0
LINE
  5
C2
102
{ACAD_XDICTIONARY
360
C0
102
}
330
1F
100
AcDbEntity
  8
0
  6
Continuous
 62
     7
370
     0
100
AcDbLine
 10
671.4900605610792
 20
1155.160930716691
 30
0.0
 11
671.4900605610792
 21
1170.160930716691
 31
0.0
  0
LINE
  5
C5
102
{ACAD_XDICTIONARY
360
C3
102
}
330
1F
100
AcDbEntity
  8
0
  6
Continuous
 62
     7
370
     0
100
AcDbLine
 10
671.4900605610792
 20
1170.160930716691
 30
0.0
 11
86.49006056107919
 21
1170.160930716691
 31
0.0
  0
LINE
  5
C8
102
{ACAD_XDICTIONARY
360
C6
102
}
330
1F
100
AcDbEntity
  8
0
  6
Continuous
 62
     7
370
     0
100
AcDbLine
 10
86.4900605610792
 20
1155.160930716691
 30
0.0
 11
86.4900605610792
 21
1155.160930716691
 31
0.0
  0
LINE
  5
CB
102
{ACAD_XDICTIONARY
360
C9
102
}
330
1F
100
AcDbEntity
  8
0
  6
Continuous
 62
     7
370
     0
100
AcDbLine
 10
86.4900605610792
 20
1170.160930716691
 30
0.0
 11
86.4900605610792
 21
1155.160930716691
 31
0.0
  0
LINE
  5
CE
102
{ACAD_XDICTIONARY
360
CC
102
}
330
1F
100
AcDbEntity
  8
0
  6
Continuous
 62
     7
370
     0
100
AcDbLine
 10
86.49006056107919
 20
1155.160930716691
 30
0.0
 11
90.49006056107919
 21
1155.160930716691
 31
0.0
  0
LINE
  5
D1
102
{ACAD_XDICTIONARY
360
CF
102
}
330
1F
100
AcDbEntity
  8
0
  6
Continuous
 62
     7
370
     0
100
AcDbLine
 10
90.49006056107896
 20
1165.160930716691
 30
0.0
 11
90.49006056107919
 21
1155.160930716691
 31
0.0
  0
LINE
  5
D4
102
{ACAD_XDICTIONARY
360
D2
102
}
330
1F
100
AcDbEntity
  8
0
  6
Continuous
 62
     7
370
     0
100
AcDbLine
 10
90.49006056107896
 20
1165.160930716691
 30
0.0
 11
104.9900605610792
 21
1165.160930716691
 31
0.0
  0
LINE
  5
D7
102
{ACAD_XDICTIONARY
360
D5
102
}
330
1F
100
AcDbEntity
  8
0
  6
Continuous
 62
     7
370
     0
100
AcDbLine
 10
667.4900605610792
 20
1155.160930716691
 30
0.0
 11
667.4900605610792
 21
1155.160930716691
 31
0.0
  0
LINE
  5
DA
102
{ACAD_XDICTIONARY
360
D8
102
}
330
1F
100
AcDbEntity
  8
0
  6
Continuous
 62
     7
370
     0
100
AcDbLine
 10
671.4900605610792
 20
1155.160930716691
 30
0.0
 11
667.4900605610792
 21
1155.160930716691
 31
0.0
  0
LINE
  5
DD
102
{ACAD_XDICTIONARY
360
DB
102
}
330
1F
100
AcDbEntity
  8
0
  6
Continuous
 62
     7
370
     0
100
AcDbLine
 10
86.49006056107919
 20
1170.160930716691
 30
0.0
 11
86.49006056107919
 21
1170.160930716691
 31
0.0
  0
ARC
  5
E0
102
{ACAD_XDICTIONARY
360
DE
102
}
330
1F
100
AcDbEntity
  8
0
  6
Continuous
 62
     7
370
     0
100
AcDbCircle
 10
87.99006056107919
 20
1181.160930716691
 30
0.0
 40
4.0
100
AcDbArc
 50
90.0
 51
180.0
  0
LINE
  5
E3
102
{ACAD_XDICTIONARY
360
E1
102
}
330
1F
100
AcDbEntity
  8
0
  6
Continuous
 62
     7
370
     0
100
AcDbLine
 10
83.99006056107919
 20
1170.160930716691
 30
0.0
 11
83.99006056107919
 21
1181.160930716691
 31
0.0
  0
LINE
  5
E6
102
{ACAD_XDICTIONARY
360
E4
102
}
330
1F
100
AcDbEntity
  8
0
  6
Continuous
 62
     7
370
     0
100
AcDbLine
 10
83.99006056107908
 20
1170.160930716691
 30
0.0
 11
86.4900605610792
 21
1170.160930716691
 31
0.0
  0
LINE
  5
E9
102
{ACAD_XDICTIONARY
360
E7
102
}
330
1F
100
AcDbEntity
  8
0
  6
Continuous
 62
     7
370
     0
100
AcDbLine
 10
87.99006056107919
 20
1185.160930716691
 30
0.0
 11
669.9900605610792
 21
1185.160930716691
 31
0.0
  0
ARC
  5
EC
102
{ACAD_XDICTIONARY
360
EA
102
}
330
1F
100
AcDbEntity
  8
0
  6
Continuous
 62
     7
370
     0
100
AcDbCircle
 10
669.9900605610792
 20
1181.160930716691
 30
0.0
 40
4.0
100
AcDbArc
 50
0.0
 51
90.0
  0
LINE
  5
EF
102
{ACAD_XDICTIONARY
360
ED
102
}
330
1F
100
AcDbEntity
  8
0
  6
Continuous
 62
     7
370
     0
100
AcDbLine
 10
673.9900605610792
 20
1181.160930716691
 30
0.0
 11
673.9900605610792
 21
1170.160930716691
 31
0.0
  0
LINE
  5
F2
102
{ACAD_XDICTIONARY
360
F0
102
}
330
1F
100
AcDbEntity
  8
0
  6
Continuous
 62
     7
370
     0
100
AcDbLine
 10
673.9900605610792
 20
1170.160930716691
 30
0.0
 11
671.4900605610792
 21
1170.160930716691
 31
0.0
  0
LINE
  5
F5
102
{ACAD_XDICTIONARY
360
F3
102
}
330
1F
100
AcDbEntity
  8
0
  6
Continuous
 62
     7
370
     0
100
AcDbLine
 10
673.9900605610792
 20
1170.160930716691
 30
0.0
 11
671.4900605610792
 21
1170.160930716691
 31
0.0
  0
DIMENSION
  5
F8
102
{ACAD_XDICTIONARY
360
F6
102
}
330
1F
100
AcDbEntity
  8
0
  6
Continuous
 62
     7
100
AcDbDimension
  2
*D1
 10
1063.628089240162
 20
105.1609307166909
 30
0.0
 11
948.9848600734957
 21
645.1609307166909
 31
0.0
 70
    32
  1
1020 (240L)\P  910(200L)
 71
     5
 42
1080.0
 73
     0
 74
     0
 75
     0
  3
標準寸法
100
AcDbAlignedDimension
 13
735.9487426318483
 23
1185.160930716691
 33
0.0
 14
735.9487426318485
 24
105.1609307166909
 34
0.0
 50
90.0
100
AcDbRotatedDimension
1001
ACAD
1000
DSTYLE
1002
{
1070
   148
1040
0.01
1002
}
  0
DIMENSION
  5
108
102
{ACAD_XDICTIONARY
360
106
102
}
330
1F
100
AcDbEntity
  8
0
  6
Continuous
 62
     7
100
AcDbDimension
  2
*D2
 10
844.0036173754524
 20
105.1609307166909
 30
0.0
 11
802.9411173754524
 21
-94.83906928330907
 31
0.0
 70
    32
  1
<>
 71
     5
 42
399.9999999999999
 73
     0
 74
     0
 75
     0
  3
標準寸法
100
AcDbAlignedDimension
 13
624.2537525564961
 23
-294.839069283309
 33
0.0
 14
624.2537525564962
 24
105.1609307166909
 34
0.0
 50
-90.0
100
AcDbRotatedDimension
1001
ACAD
1000
DSTYLE
1002
{
1070
   148
1040
0.01
1002
}
  0
DIMENSION
  5
117
102
{ACAD_XDICTIONARY
360
115
102
}
330
1F
100
AcDbEntity
  8
0
  6
Continuous
 62
     7
100
AcDbDimension
  2
*D3
 10
646.3327904190936
 20
1512.086860507613
 30
0.0
 11
379.1178564063957
 21
1559.282173007613
 31
0.0
 70
    33
  1
550 内径\P
 71
     5
 42
534.4298680253958
 73
     0
 74
     0
 75
     0
  3
標準寸法
100
AcDbAlignedDimension
 13
111.9029223936978
 23
359.1292934745929
 33
0.0
 14
646.3327904190936
 24
359.1292934745929
 34
0.0
1001
ACAD
1000
DSTYLE
1002
{
1070
   148
1040
0.01
1002
}
  0
CIRCLE
  5
126
102
{ACAD_XDICTIONARY
360
124
102
}
330
1F
100
AcDbEntity
  8
0
  6
Continuous
 62
     7
370
     0
100
AcDbCircle
 10
378.9900605610792
 20
213.1964032034852
 30
0.0
 40
20.0
  0
LWPOLYLINE
  5
129
102
{ACAD_XDICTIONARY
360
127
102
}
330
1F
100
AcDbEntity
  8
0
  6
Continuous
 62
     7
370
     0
100
AcDbPolyline
 90
        4
 70
   129
 43
0.0
 10
358.9179712916812
 20
216.3414008743318
 10
398.2304421772627
 20
216.3414008743318
 10
398.2304421772627
 20
172.3114334824804
 10
358.9179712916812
 20
172.3114334824804
  0
LWPOLYLINE
  5
12C
102
{ACAD_XDICTIONARY
360
12A
102
}
330
1F
100
AcDbEntity
  8
0
  6
Continuous
 62
     7
370
     0
100
AcDbPolyline
 90
        4
 70
   129
 43
0.0
 10
375.9533753198751
 20
245.1705462087183
 10
442.5224926861266
 20
245.1705462087183
 10
442.5224926861266
 20
234.6872206392298
 10
375.9533753198751
 20
234.6872206392298
  0
DIMENSION
  5
12F
102
{ACAD_XDICTIONARY
360
12D
102
}
330
1F
100
AcDbEntity
  8
0
  6
Continuous
 62
     7
100
AcDbDimension
  2
*D4
 10
674.0149029040399
 20
1832.566269042454
 30
0.0
 11
379.4334544014153
 21
1873.628769042454
 31
0.0
 70
    32
  1
590\P
 71
     5
 42
589.1628970052492
 73
     0
 74
     0
 75
     0
  3
標準寸法
100
AcDbAlignedDimension
 13
84.85200589879072
 23
1175.387564493089
 33
0.0
 14
674.0149029040399
 24
1176.435897050038
 34
0.0
100
AcDbRotatedDimension
1001
ACAD
1000
DSTYLE
1002
{
1070
   148
1040
0.01
1002
}
  0
LWPOLYLINE
  5
13E
102
{ACAD_XDICTIONARY
360
13C
102
}
330
1F
100
AcDbEntity
  8
0
  6
Continuous
 62
     7
370
     0
100
AcDbPolyline
 90
        4
 70
   129
 43
0.0
 10
-333.8601853939733
 20
1178.984960942743
 10
-239.8601853939733
 20
1178.984960942743
 10
-239.8601853939733
 20
1098.984960942743
 10
-333.8601853939733
 20
1098.984960942743
  0
LWPOLYLINE
  5
141
102
{ACAD_XDICTIONARY
360
13F
102
}
330
1F
100
AcDbEntity
  8
0
  6
Continuous
 62
     7
370
     0
100
AcDbPolyline
 90
        4
 70
   129
 43
0.0
 10
-334.8302180773923
 20
1236.564951653595
 10
-240.8302180773923
 20
1236.564951653595
 10
-240.8302180773923
 20
1156.564951653595
 10
-334.8302180773923
 20
1156.564951653595
  0
LWPOLYLINE
  5
144
102
{ACAD_XDICTIONARY
360
142
102
}
330
1F
100
AcDbEntity
  8
0
  6
Continuous
 62
     7
370
     0
100
AcDbPolyline
 90
        4
 70
   129
 43
0.0
 10
-241.5436042119997
 20
1141.971668015579
 10
-191.5436042119997
 20
1141.971668015579
 10
-191.5436042119997
 20
1116.971668015579
 10
-241.5436042119997
 20
1116.971668015579
  0
MLINE
  5
148
102
{ACAD_XDICTIONARY
360
145
102
}
330
1F
100
AcDbEntity
  8
0
  6
Continuous
 62
     7
100
AcDbMline
  2
TCW_MLSTYLE_0
340
147
 40
1.0
 70
     1
 71
     1
 72
     4
 73
     3
 10
0.0
 20
0.0
 30
0.0
210
0.0
220
0.0
230
1.0
 11
-191.5436042119997
 21
1129.471668015579
 31
0.0
 12
1.0
 22
0.0
 32
0.0
 13
6.123031769111886E-17
 23
1.0
 33
0.0
 74
     2
 41
16.0
 41
0.0
 75
     0
 74
     2
 41
5.0
 41
0.0
 75
     0
 74
     2
 41
0.0
 41
0.0
 75
     0
 11
-134.7736646840269
 21
1129.471668015579
 31
0.0
 12
0.0
 22
-1.0
 32
0.0
 13
0.7071067811865475
 23
0.7071067811865475
 33
0.0
 74
     2
 41
22.62741699796952
 41
0.0
 75
     0
 74
     2
 41
7.071067811865476
 41
0.0
 75
     0
 74
     2
 41
0.0
 41
0.0
 75
     0
 11
-134.7736646840269
 21
959.6417937544328
 31
0.0
 12
1.0
 22
0.0
 32
0.0
 13
0.7071067811865475
 23
0.7071067811865475
 33
0.0
 74
     2
 41
22.62741699796952
 41
0.0
 75
     0
 74
     2
 41
7.071067811865476
 41
0.0
 75
     0
 74
     2
 41
0.0
 41
0.0
 75
     0
 11
121.0194792114905
 21
959.6417937544328
 31
0.0
 12
1.0
 22
0.0
 32
0.0
 13
6.123031769111886E-17
 23
1.0
 33
0.0
 74
     2
 41
16.0
 41
0.0
 75
     0
 74
     2
 41
5.0
 41
0.0
 75
     0
 74
     2
 41
0.0
 41
0.0
 75
     0
  0
DIMENSION
  5
14B
102
{ACAD_XDICTIONARY
360
149
102
}
330
1F
100
AcDbEntity
  8
0
  6
Continuous
 62
     7
100
AcDbDimension
  2
*D5
 10
496.9288119631267
 20
170.160930716691
 30
0.0
 11
455.8663119631267
 21
-62.33906928330907
 31
0.0
 70
    32
  1
585
 71
     5
 42
465.0000000000001
 73
     0
 74
     0
 75
     0
  3
標準寸法
100
AcDbAlignedDimension
 13
378.9900605610792
 23
-294.8390692833091
 33
0.0
 14
378.9900605610792
 24
170.160930716691
 34
0.0
 50
90.0
100
AcDbRotatedDimension
1001
ACAD
1000
DSTYLE
1002
{
1070
   148
1040
0.01
1002
}
  0
DIMENSION
  5
15A
102
{ACAD_XDICTIONARY
360
158
102
}
330
1F
100
AcDbEntity
  8
0
  6
Continuous
 62
     7
100
AcDbDimension
  2
*D6
 10
1753.321777782858
 20
1185.160930716691
 30
0.0
 11
1638.678548616191
 21
445.1609307166909
 31
0.0
 70
    32
  1
1420(240L)\P1310(200L)\P
 71
     5
 42
1480.0
 73
     0
 74
     0
 75
     0
  3
標準寸法
100
AcDbAlignedDimension
 13
624.2537525564961
 23
-294.839069283309
 33
0.0
 14
702.5843211042014
 24
1185.160930716691
 34
0.0
 50
90.0
100
AcDbRotatedDimension
1001
ACAD
1000
DSTYLE
1002
{
1070
   148
1040
0.01
1002
}
  0
LINE
  5
169
102
{ACAD_XDICTIONARY
360
167
102
}
330
1F
100
AcDbEntity
  8
0
  6
Continuous
 62
     7
370
     0
100
AcDbLine
 10
-239.8601853939733
 20
1098.984960942743
 30
0.0
 11
-333.8601853939733
 21
1098.984960942743
 31
0.0
  0
LWPOLYLINE
  5
16C
102
{ACAD_XDICTIONARY
360
16A
102
}
330
1F
100
AcDbEntity
  8
0
  6
Continuous
 62
     7
370
     0
100
AcDbPolyline
 90
        4
 70
   129
 43
0.0
 10
362.9382390230109
 20
104.5748534524499
 10
397.9278798134272
 20
104.5748534524499
 10
397.9278798134272
 20
48.88940582802218
 10
362.9382390230109
 20
48.88940582802218
  0
LWPOLYLINE
  5
16F
102
{ACAD_XDICTIONARY
360
16D
102
}
330
1F
100
AcDbEntity
  8
0
  6
Continuous
 62
     7
370
     0
100
AcDbPolyline
 90
        4
 70
   129
 43
0.0
 10
353.1764129377589
 20
84.07045753866828
 10
403.4963756713032
 20
84.07045753866828
 10
403.4963756713032
 20
73.58713196917984
 10
353.1764129377589
 20
73.58713196917984
  0
LWPOLYLINE
  5
172
102
{ACAD_XDICTIONARY
360
170
102
}
330
1F
100
AcDbEntity
  8
0
  6
Continuous
 62
     7
370
     0
100
AcDbPolyline
 90
        4
 70
   129
 43
0.0
 10
365.7564036209353
 20
47.37881805195838
 10
395.1097152155028
 20
47.37881805195838
 10
395.1097152155028
 20
-19.71446559276745
 10
365.7564036209353
 20
-19.71446559276745
  0
POLYLINE
  5
175
102
{ACAD_XDICTIONARY
360
173
102
}
330
1F
100
AcDbEntity
  8
0
  6
Continuous
 62
     7
370
     0
100
AcDb2dPolyline
 66
     1
 10
0.0
 20
0.0
 30
0.0
 70
   132
 75
     6
  0
VERTEX
  5
177
330
175
100
AcDbEntity
  8
0
  6
Continuous
 62
     7
100
AcDbVertex
100
AcDb2dVertex
 10
393.757590018552
 20
-20.27839455427863
 30
0.0
 70
    16
  0
VERTEX
  5
178
330
175
100
AcDbEntity
  8
0
  6
Continuous
 62
     7
100
AcDbVertex
100
AcDb2dVertex
 10
395.151427859338
 20
-81.95625728743045
 30
0.0
 70
    16
  0
VERTEX
  5
179
330
175
100
AcDbEntity
  8
0
  6
Continuous
 62
     7
100
AcDbVertex
100
AcDb2dVertex
 10
397.9394309506567
 20
-205.3264707614663
 30
0.0
 70
    16
  0
VERTEX
  5
17A
330
175
100
AcDbEntity
  8
0
  6
Continuous
 62
     7
100
AcDbVertex
100
AcDb2dVertex
 10
283.3338838304574
 20
-251.0902810500978
 30
0.0
 70
    16
  0
VERTEX
  5
17B
330
175
100
AcDbEntity
  8
0
  6
Continuous
 62
     7
100
AcDbVertex
100
AcDb2dVertex
 10
226.0243809067371
 20
-273.9748733358986
 30
0.0
 70
    16
  0
VERTEX
  5
17C
330
175
100
AcDbEntity
  8
0
  6
Continuous
 62
     7
100
AcDbVertex
100
AcDb2dVertex
 10
393.757590018552
 20
-20.27839455427863
 30
0.0
 70
     8
  0
VERTEX
  5
17D
330
175
100
AcDbEntity
  8
0
  6
Continuous
 62
     7
100
AcDbVertex
100
AcDb2dVertex
 10
393.9629980078088
 20
-29.52764933372622
 30
0.0
 70
     8
  0
VERTEX
  5
17E
330
175
100
AcDbEntity
  8
0
  6
Continuous
 62
     7
100
AcDbVertex
100
AcDb2dVertex
 10
394.1463998758987
 20
-38.76235633002266
 30
0.0
 70
     8
  0
VERTEX
  5
17F
330
175
100
AcDbEntity
  8
0
  6
Continuous
 62
     7
100
AcDbVertex
100
AcDb2dVertex
 10
394.2857895016549
 20
-47.96796776001678
 30
0.0
 70
     8
  0
VERTEX
  5
180
330
175
100
AcDbEntity
  8
0
  6
Continuous
 62
     7
100
AcDbVertex
100
AcDb2dVertex
 10
394.3591607639106
 20
-57.12993584055745
 30
0.0
 70
     8
  0
VERTEX
  5
181
330
175
100
AcDbEntity
  8
0
  6
Continuous
 62
     7
100
AcDbVertex
100
AcDb2dVertex
 10
394.3445075414988
 20
-66.2337127884935
 30
0.0
 70
     8
  0
VERTEX
  5
182
330
175
100
AcDbEntity
  8
0
  6
Continuous
 62
     7
100
AcDbVertex
100
AcDb2dVertex
 10
394.2198237132529
 20
-75.26475082067378
 30
0.0
 70
     8
  0
VERTEX
  5
183
330
175
100
AcDbEntity
  8
0
  6
Continuous
 62
     7
100
AcDbVertex
100
AcDb2dVertex
 10
393.9631031580058
 20
-84.20850215394715
 30
0.0
 70
     8
  0
VERTEX
  5
184
330
175
100
AcDbEntity
  8
0
  6
Continuous
 62
     7
100
AcDbVertex
100
AcDb2dVertex
 10
393.5523397545908
 20
-93.05041900516242
 30
0.0
 70
     8
  0
VERTEX
  5
185
330
175
100
AcDbEntity
  8
0
  6
Continuous
 62
     7
100
AcDbVertex
100
AcDb2dVertex
 10
392.9655273818411
 20
-101.7759535911685
 30
0.0
 70
     8
  0
VERTEX
  5
186
330
175
100
AcDbEntity
  8
0
  6
Continuous
 62
     7
100
AcDbVertex
100
AcDb2dVertex
 10
392.1806599185897
 20
-110.3705581288142
 30
0.0
 70
     8
  0
VERTEX
  5
187
330
175
100
AcDbEntity
  8
0
  6
Continuous
 62
     7
100
AcDbVertex
100
AcDb2dVertex
 10
391.1757312436699
 20
-118.8196848349483
 30
0.0
 70
     8
  0
VERTEX
  5
188
330
175
100
AcDbEntity
  8
0
  6
Continuous
 62
     7
100
AcDbVertex
100
AcDb2dVertex
 10
389.9287352359146
 20
-127.1087859264197
 30
0.0
 70
     8
  0
VERTEX
  5
189
330
175
100
AcDbEntity
  8
0
  6
Continuous
 62
     7
100
AcDbVertex
100
AcDb2dVertex
 10
388.4176657741573
 20
-135.2233136200773
 30
0.0
 70
     8
  0
VERTEX
  5
18A
330
175
100
AcDbEntity
  8
0
  6
Continuous
 62
     7
100
AcDbVertex
100
AcDb2dVertex
 10
386.6205167372309
 20
-143.1487201327699
 30
0.0
 70
     8
  0
VERTEX
  5
18B
330
175
100
AcDbEntity
  8
0
  6
Continuous
 62
     7
100
AcDbVertex
100
AcDb2dVertex
 10
384.5152820039687
 20
-150.8704576813464
 30
0.0
 70
     8
  0
VERTEX
  5
18C
330
175
100
AcDbEntity
  8
0
  6
Continuous
 62
     7
100
AcDbVertex
100
AcDb2dVertex
 10
382.0799554532037
 20
-158.3739784826555
 30
0.0
 70
     8
  0
VERTEX
  5
18D
330
175
100
AcDbEntity
  8
0
  6
Continuous
 62
     7
100
AcDbVertex
100
AcDb2dVertex
 10
379.2925309637691
 20
-165.6447347535462
 30
0.0
 70
     8
  0
VERTEX
  5
18E
330
175
100
AcDbEntity
  8
0
  6
Continuous
 62
     7
100
AcDbVertex
100
AcDb2dVertex
 10
376.1310024144982
 20
-172.6681787108673
 30
0.0
 70
     8
  0
VERTEX
  5
18F
330
175
100
AcDbEntity
  8
0
  6
Continuous
 62
     7
100
AcDbVertex
100
AcDb2dVertex
 10
372.573363684224
 20
-179.4297625714676
 30
0.0
 70
     8
  0
VERTEX
  5
190
330
175
100
AcDbEntity
  8
0
  6
Continuous
 62
     7
100
AcDbVertex
100
AcDb2dVertex
 10
368.5976086517798
 20
-185.914938552196
 30
0.0
 70
     8
  0
VERTEX
  5
191
330
175
100
AcDbEntity
  8
0
  6
Continuous
 62
     7
100
AcDbVertex
100
AcDb2dVertex
 10
364.187980169572
 20
-192.1154306693045
 30
0.0
 70
     8
  0
VERTEX
  5
192
330
175
100
AcDbEntity
  8
0
  6
Continuous
 62
     7
100
AcDbVertex
100
AcDb2dVertex
 10
359.3600389327419
 20
-198.0393850359635
 30
0.0
 70
     8
  0
VERTEX
  5
193
330
175
100
AcDbEntity
  8
0
  6
Continuous
 62
     7
100
AcDbVertex
100
AcDb2dVertex
 10
354.1358014020591
 20
-203.7013562706173
 30
0.0
 70
     8
  0
VERTEX
  5
194
330
175
100
AcDbEntity
  8
0
  6
Continuous
 62
     7
100
AcDbVertex
100
AcDb2dVertex
 10
348.5372840382934
 20
-209.1158989917108
 30
0.0
 70
     8
  0
VERTEX
  5
195
330
175
100
AcDbEntity
  8
0
  6
Continuous
 62
     7
100
AcDbVertex
100
AcDb2dVertex
 10
342.5865033022142
 20
-214.2975678176888
 30
0.0
 70
     8
  0
VERTEX
  5
196
330
175
100
AcDbEntity
  8
0
  6
Continuous
 62
     7
100
AcDbVertex
100
AcDb2dVertex
 10
336.3054756545912
 20
-219.2609173669958
 30
0.0
 70
     8
  0
VERTEX
  5
197
330
175
100
AcDbEntity
  8
0
  6
Continuous
 62
     7
100
AcDbVertex
100
AcDb2dVertex
 10
329.716217556194
 20
-224.0205022580768
 30
0.0
 70
     8
  0
VERTEX
  5
198
330
175
100
AcDbEntity
  8
0
  6
Continuous
 62
     7
100
AcDbVertex
100
AcDb2dVertex
 10
322.8407454677921
 20
-228.5908771093762
 30
0.0
 70
     8
  0
VERTEX
  5
199
330
175
100
AcDbEntity
  8
0
  6
Continuous
 62
     7
100
AcDbVertex
100
AcDb2dVertex
 10
315.7010758501552
 20
-232.986596539339
 30
0.0
 70
     8
  0
VERTEX
  5
19A
330
175
100
AcDbEntity
  8
0
  6
Continuous
 62
     7
100
AcDbVertex
100
AcDb2dVertex
 10
308.3192251640527
 20
-237.2222151664098
 30
0.0
 70
     8
  0
VERTEX
  5
19B
330
175
100
AcDbEntity
  8
0
  6
Continuous
 62
     7
100
AcDbVertex
100
AcDb2dVertex
 10
300.7172098702545
 20
-241.3122876090333
 30
0.0
 70
     8
  0
VERTEX
  5
19C
330
175
100
AcDbEntity
  8
0
  6
Continuous
 62
     7
100
AcDbVertex
100
AcDb2dVertex
 10
292.9170464295298
 20
-245.2713684856543
 30
0.0
 70
     8
  0
VERTEX
  5
19D
330
175
100
AcDbEntity
  8
0
  6
Continuous
 62
     7
100
AcDbVertex
100
AcDb2dVertex
 10
284.9407513026486
 20
-249.1140124147176
 30
0.0
 70
     8
  0
VERTEX
  5
19E
330
175
100
AcDbEntity
  8
0
  6
Continuous
 62
     7
100
AcDbVertex
100
AcDb2dVertex
 10
276.8103409503801
 20
-252.8547740146677
 30
0.0
 70
     8
  0
VERTEX
  5
19F
330
175
100
AcDbEntity
  8
0
  6
Continuous
 62
     7
100
AcDbVertex
100
AcDb2dVertex
 10
268.5478318334942
 20
-256.5082079039495
 30
0.0
 70
     8
  0
VERTEX
  5
1A0
330
175
100
AcDbEntity
  8
0
  6
Continuous
 62
     7
100
AcDbVertex
100
AcDb2dVertex
 10
260.1752404127603
 20
-260.0888687010077
 30
0.0
 70
     8
  0
VERTEX
  5
1A1
330
175
100
AcDbEntity
  8
0
  6
Continuous
 62
     7
100
AcDbVertex
100
AcDb2dVertex
 10
251.7145831489481
 20
-263.6113110242869
 30
0.0
 70
     8
  0
VERTEX
  5
1A2
330
175
100
AcDbEntity
  8
0
  6
Continuous
 62
     7
100
AcDbVertex
100
AcDb2dVertex
 10
243.187876502827
 20
-267.090089492232
 30
0.0
 70
     8
  0
VERTEX
  5
1A3
330
175
100
AcDbEntity
  8
0
  6
Continuous
 62
     7
100
AcDbVertex
100
AcDb2dVertex
 10
234.6171369351668
 20
-270.5397587232877
 30
0.0
 70
     8
  0
VERTEX
  5
1A4
330
175
100
AcDbEntity
  8
0
  6
Continuous
 62
     7
100
AcDbVertex
100
AcDb2dVertex
 10
226.024380906737
 20
-273.9748733358986
 30
0.0
 70
     8
  0
SEQEND
  5
176
330
175
100
AcDbEntity
  8
0
  6
Continuous
 62
     7
370
     0
  0
POLYLINE
  5
1A7
102
{ACAD_XDICTIONARY
360
1A5
102
}
330
1F
100
AcDbEntity
  8
0
  6
Continuous
 62
     7
370
     0
100
AcDb2dPolyline
 66
     1
 10
0.0
 20
0.0
 30
0.0
 70
   132
 75
     6
  0
VERTEX
  5
1A9
330
1A7
100
AcDbEntity
  8
0
  6
Continuous
 62
     7
100
AcDbVertex
100
AcDb2dVertex
 10
363.3559458700755
 20
-5.601738758462773
 30
0.0
 70
    16
  0
VERTEX
  5
1AA
330
1A7
100
AcDbEntity
  8
0
  6
Continuous
 62
     7
100
AcDbVertex
100
AcDb2dVertex
 10
364.7497837108615
 20
-67.27960149161459
 30
0.0
 70
    16
  0
VERTEX
  5
1AB
330
1A7
100
AcDbEntity
  8
0
  6
Continuous
 62
     7
100
AcDbVertex
100
AcDb2dVertex
 10
367.5377868021802
 20
-190.6498149656504
 30
0.0
 70
    16
  0
VERTEX
  5
1AC
330
1A7
100
AcDbEntity
  8
0
  6
Continuous
 62
     7
100
AcDbVertex
100
AcDb2dVertex
 10
252.9322396819808
 20
-236.4136252542819
 30
0.0
 70
    16
  0
VERTEX
  5
1AD
330
1A7
100
AcDbEntity
  8
0
  6
Continuous
 62
     7
100
AcDbVertex
100
AcDb2dVertex
 10
195.6227367582605
 20
-259.2982175400827
 30
0.0
 70
    16
  0
VERTEX
  5
1AE
330
1A7
100
AcDbEntity
  8
0
  6
Continuous
 62
     7
100
AcDbVertex
100
AcDb2dVertex
 10
363.3559458700755
 20
-5.601738758462773
 30
0.0
 70
     8
  0
VERTEX
  5
1AF
330
1A7
100
AcDbEntity
  8
0
  6
Continuous
 62
     7
100
AcDbVertex
100
AcDb2dVertex
 10
363.5613538593323
 20
-14.85099353791036
 30
0.0
 70
     8
  0
VERTEX
  5
1B0
330
1A7
100
AcDbEntity
  8
0
  6
Continuous
 62
     7
100
AcDbVertex
100
AcDb2dVertex
 10
363.7447557274222
 20
-24.08570053420679
 30
0.0
 70
     8
  0
VERTEX
  5
1B1
330
1A7
100
AcDbEntity
  8
0
  6
Continuous
 62
     7
100
AcDbVertex
100
AcDb2dVertex
 10
363.8841453531784
 20
-33.29131196420092
 30
0.0
 70
     8
  0
VERTEX
  5
1B2
330
1A7
100
AcDbEntity
  8
0
  6
Continuous
 62
     7
100
AcDbVertex
100
AcDb2dVertex
 10
363.9575166154341
 20
-42.45328004474159
 30
0.0
 70
     8
  0
VERTEX
  5
1B3
330
1A7
100
AcDbEntity
  8
0
  6
Continuous
 62
     7
100
AcDbVertex
100
AcDb2dVertex
 10
363.9428633930224
 20
-51.55705699267764
 30
0.0
 70
     8
  0
VERTEX
  5
1B4
330
1A7
100
AcDbEntity
  8
0
  6
Continuous
 62
     7
100
AcDbVertex
100
AcDb2dVertex
 10
363.8181795647764
 20
-60.58809502485792
 30
0.0
 70
     8
  0
VERTEX
  5
1B5
330
1A7
100
AcDbEntity
  8
0
  6
Continuous
 62
     7
100
AcDbVertex
100
AcDb2dVertex
 10
363.5614590095294
 20
-69.53184635813128
 30
0.0
 70
     8
  0
VERTEX
  5
1B6
330
1A7
100
AcDbEntity
  8
0
  6
Continuous
 62
     7
100
AcDbVertex
100
AcDb2dVertex
 10
363.1506956061144
 20
-78.37376320934656
 30
0.0
 70
     8
  0
VERTEX
  5
1B7
330
1A7
100
AcDbEntity
  8
0
  6
Continuous
 62
     7
100
AcDbVertex
100
AcDb2dVertex
 10
362.5638832333647
 20
-87.09929779535263
 30
0.0
 70
     8
  0
VERTEX
  5
1B8
330
1A7
100
AcDbEntity
  8
0
  6
Continuous
 62
     7
100
AcDbVertex
100
AcDb2dVertex
 10
361.7790157701132
 20
-95.6939023329983
 30
0.0
 70
     8
  0
VERTEX
  5
1B9
330
1A7
100
AcDbEntity
  8
0
  6
Continuous
 62
     7
100
AcDbVertex
100
AcDb2dVertex
 10
360.7740870951934
 20
-104.1430290391324
 30
0.0
 70
     8
  0
VERTEX
  5
1BA
330
1A7
100
AcDbEntity
  8
0
  6
Continuous
 62
     7
100
AcDbVertex
100
AcDb2dVertex
 10
359.5270910874382
 20
-112.4321301306038
 30
0.0
 70
     8
  0
VERTEX
  5
1BB
330
1A7
100
AcDbEntity
  8
0
  6
Continuous
 62
     7
100
AcDbVertex
100
AcDb2dVertex
 10
358.0160216256809
 20
-120.5466578242614
 30
0.0
 70
     8
  0
VERTEX
  5
1BC
330
1A7
100
AcDbEntity
  8
0
  6
Continuous
 62
     7
100
AcDbVertex
100
AcDb2dVertex
 10
356.2188725887545
 20
-128.472064336954
 30
0.0
 70
     8
  0
VERTEX
  5
1BD
330
1A7
100
AcDbEntity
  8
0
  6
Continuous
 62
     7
100
AcDbVertex
100
AcDb2dVertex
 10
354.1136378554922
 20
-136.1938018855305
 30
0.0
 70
     8
  0
VERTEX
  5
1BE
330
1A7
100
AcDbEntity
  8
0
  6
Continuous
 62
     7
100
AcDbVertex
100
AcDb2dVertex
 10
351.6783113047273
 20
-143.6973226868396
 30
0.0
 70
     8
  0
VERTEX
  5
1BF
330
1A7
100
AcDbEntity
  8
0
  6
Continuous
 62
     7
100
AcDbVertex
100
AcDb2dVertex
 10
348.8908868152927
 20
-150.9680789577303
 30
0.0
 70
     8
  0
VERTEX
  5
1C0
330
1A7
100
AcDbEntity
  8
0
  6
Continuous
 62
     7
100
AcDbVertex
100
AcDb2dVertex
 10
345.7293582660218
 20
-157.9915229150514
 30
0.0
 70
     8
  0
VERTEX
  5
1C1
330
1A7
100
AcDbEntity
  8
0
  6
Continuous
 62
     7
100
AcDbVertex
100
AcDb2dVertex
 10
342.1717195357476
 20
-164.7531067756516
 30
0.0
 70
     8
  0
VERTEX
  5
1C2
330
1A7
100
AcDbEntity
  8
0
  6
Continuous
 62
     7
100
AcDbVertex
100
AcDb2dVertex
 10
338.1959645033034
 20
-171.23828275638
 30
0.0
 70
     8
  0
VERTEX
  5
1C3
330
1A7
100
AcDbEntity
  8
0
  6
Continuous
 62
     7
100
AcDbVertex
100
AcDb2dVertex
 10
333.7863360210955
 20
-177.4387748734887
 30
0.0
 70
     8
  0
VERTEX
  5
1C4
330
1A7
100
AcDbEntity
  8
0
  6
Continuous
 62
     7
100
AcDbVertex
100
AcDb2dVertex
 10
328.9583947842654
 20
-183.3627292401476
 30
0.0
 70
     8
  0
VERTEX
  5
1C5
330
1A7
100
AcDbEntity
  8
0
  6
Continuous
 62
     7
100
AcDbVertex
100
AcDb2dVertex
 10
323.7341572535826
 20
-189.0247004748015
 30
0.0
 70
     8
  0
VERTEX
  5
1C6
330
1A7
100
AcDbEntity
  8
0
  6
Continuous
 62
     7
100
AcDbVertex
100
AcDb2dVertex
 10
318.1356398898168
 20
-194.439243195895
 30
0.0
 70
     8
  0
VERTEX
  5
1C7
330
1A7
100
AcDbEntity
  8
0
  6
Continuous
 62
     7
100
AcDbVertex
100
AcDb2dVertex
 10
312.1848591537376
 20
-199.620912021873
 30
0.0
 70
     8
  0
VERTEX
  5
1C8
330
1A7
100
AcDbEntity
  8
0
  6
Continuous
 62
     7
100
AcDbVertex
100
AcDb2dVertex
 10
305.9038315061147
 20
-204.5842615711801
 30
0.0
 70
     8
  0
VERTEX
  5
1C9
330
1A7
100
AcDbEntity
  8
0
  6
Continuous
 62
     7
100
AcDbVertex
100
AcDb2dVertex
 10
299.3145734077174
 20
-209.343846462261
 30
0.0
 70
     8
  0
VERTEX
  5
1CA
330
1A7
100
AcDbEntity
  8
0
  6
Continuous
 62
     7
100
AcDbVertex
100
AcDb2dVertex
 10
292.4391013193155
 20
-213.9142213135604
 30
0.0
 70
     8
  0
VERTEX
  5
1CB
330
1A7
100
AcDbEntity
  8
0
  6
Continuous
 62
     7
100
AcDbVertex
100
AcDb2dVertex
 10
285.2994317016787
 20
-218.3099407435232
 30
0.0
 70
     8
  0
VERTEX
  5
1CC
330
1A7
100
AcDbEntity
  8
0
  6
Continuous
 62
     7
100
AcDbVertex
100
AcDb2dVertex
 10
277.9175810155762
 20
-222.5455593705939
 30
0.0
 70
     8
  0
VERTEX
  5
1CD
330
1A7
100
AcDbEntity
  8
0
  6
Continuous
 62
     7
100
AcDbVertex
100
AcDb2dVertex
 10
270.3155657217779
 20
-226.6356318132175
 30
0.0
 70
     8
  0
VERTEX
  5
1CE
330
1A7
100
AcDbEntity
  8
0
  6
Continuous
 62
     7
100
AcDbVertex
100
AcDb2dVertex
 10
262.5154022810533
 20
-230.5947126898385
 30
0.0
 70
     8
  0
VERTEX
  5
1CF
330
1A7
100
AcDbEntity
  8
0
  6
Continuous
 62
     7
100
AcDbVertex
100
AcDb2dVertex
 10
254.539107154172
 20
-234.4373566189017
 30
0.0
 70
     8
  0
VERTEX
  5
1D0
330
1A7
100
AcDbEntity
  8
0
  6
Continuous
 62
     7
100
AcDbVertex
100
AcDb2dVertex
 10
246.4086968019036
 20
-238.1781182188519
 30
0.0
 70
     8
  0
VERTEX
  5
1D1
330
1A7
100
AcDbEntity
  8
0
  6
Continuous
 62
     7
100
AcDbVertex
100
AcDb2dVertex
 10
238.1461876850176
 20
-241.8315521081336
 30
0.0
 70
     8
  0
VERTEX
  5
1D2
330
1A7
100
AcDbEntity
  8
0
  6
Continuous
 62
     7
100
AcDbVertex
100
AcDb2dVertex
 10
229.7735962642838
 20
-245.4122129051918
 30
0.0
 70
     8
  0
VERTEX
  5
1D3
330
1A7
100
AcDbEntity
  8
0
  6
Continuous
 62
     7
100
AcDbVertex
100
AcDb2dVertex
 10
221.3129390004715
 20
-248.9346552284711
 30
0.0
 70
     8
  0
VERTEX
  5
1D4
330
1A7
100
AcDbEntity
  8
0
  6
Continuous
 62
     7
100
AcDbVertex
100
AcDb2dVertex
 10
212.7862323543505
 20
-252.4134336964163
 30
0.0
 70
     8
  0
VERTEX
  5
1D5
330
1A7
100
AcDbEntity
  8
0
  6
Continuous
 62
     7
100
AcDbVertex
100
AcDb2dVertex
 10
204.2154927866903
 20
-255.8631029274718
 30
0.0
 70
     8
  0
VERTEX
  5
1D6
330
1A7
100
AcDbEntity
  8
0
  6
Continuous
 62
     7
100
AcDbVertex
100
AcDb2dVertex
 10
195.6227367582606
 20
-259.2982175400827
 30
0.0
 70
     8
  0
SEQEND
  5
1A8
330
1A7
100
AcDbEntity
  8
0
  6
Continuous
 62
     7
370
     0
  0
LWPOLYLINE
  5
1D9
102
{ACAD_XDICTIONARY
360
1D7
102
}
330
1F
100
AcDbEntity
  8
0
  6
HIDDEN
 62
     7
370
     0
100
AcDbPolyline
 90
        4
 70
   129
 43
0.0
 10
-1272.684150605526
 20
1184.477769618492
 10
-1178.684150605526
 20
1184.477769618492
 10
-1178.684150605526
 20
1104.477769618492
 10
-1272.684150605526
 20
1104.477769618492
  0
LWPOLYLINE
  5
1DC
102
{ACAD_XDICTIONARY
360
1DA
102
}
330
1F
100
AcDbEntity
  8
0
  6
HIDDEN
 62
     7
370
     0
100
AcDbPolyline
 90
        4
 70
   129
 43
0.0
 10
-1273.654183288945
 20
1242.057760329345
 10
-1179.654183288945
 20
1242.057760329345
 10
-1179.654183288945
 20
1162.057760329345
 10
-1273.654183288945
 20
1162.057760329345
  0
LWPOLYLINE
  5
1DF
102
{ACAD_XDICTIONARY
360
1DD
102
}
330
1F
100
AcDbEntity
  8
0
  6
HIDDEN
 62
     7
370
     0
100
AcDbPolyline
 90
        4
 70
   129
 43
0.0
 10
-1180.367569423552
 20
1147.464476691328
 10
-1130.367569423552
 20
1147.464476691328
 10
-1130.367569423552
 20
1122.464476691328
 10
-1180.367569423552
 20
1122.464476691328
  0
LINE
  5
1E2
102
{ACAD_XDICTIONARY
360
1E0
102
}
330
1F
100
AcDbEntity
  8
0
  6
HIDDEN
 62
     7
370
     0
100
AcDbLine
 10
-1178.684150605526
 20
1104.477769618492
 30
0.0
 11
-1272.684150605526
 21
1104.477769618492
 31
0.0
  0
LWPOLYLINE
  5
1E5
102
{ACAD_XDICTIONARY
360
1E3
102
}
330
1F
100
AcDbEntity
  8
Layer_1
  6
HIDDEN
 62
     7
370
     0
100
AcDbPolyline
 90
        6
 70
   128
 43
0.0
 10
-1145.252408855221
 20
1148.942707436527
 10
-962.8144781335952
 20
1148.942707436527
 10
-962.8144781335951
 20
-152.4478650444034
 10
-66.84152947849952
 20
-152.4478650444034
 10
-66.8415294784995
 20
338.1074597848572
 10
107.4880487666096
 20
338.1074597848572
  0
LWPOLYLINE
  5
1E8
102
{ACAD_XDICTIONARY
360
1E6
102
}
330
1F
100
AcDbEntity
  8
Layer_1
  6
HIDDEN
 62
     7
370
     0
100
AcDbPolyline
 90
        8
 70
   128
 43
0.0
 10
107.4880487666096
 20
309.7282261170487
 10
-34.40811957243295
 20
309.7282261170487
 10
-34.40811957243292
 20
-188.9354511887286
 10
-1076.331412804829
 20
-188.9354511887287
 10
-1076.331412804829
 20
-152.4478650444034
 10
-999.3020642779204
 20
-152.4478650444034
 10
-999.3020642779203
 20
1120.563473768719
 10
-1129.035703902188
 20
1120.563473768719
  0
LEADER
  5
1EB
102
{ACAD_XDICTIONARY
360
1E9
102
}
330
1F
100
AcDbEntity
  8
Layer_1
  6
Continuous
 62
     7
370
     0
100
AcDbLeader
  3
標準寸法
 73
     0
 76
     4
 10
-322.2546324887758
 20
1258.405465869503
 30
0.0
 10
-464.1508008278179
 20
1432.735044114612
 30
0.0
 10
-958.7603018953371
 20
1432.735044114612
 30
0.0
 10
-1960.760301895337
 20
1432.735044114612
 30
0.0
340
1EE
1001
ACAD
1000
DSTYLE
1002
{
1070
   148
1040
0.01
1070
    45
1040
0.01
1002
}
  0
MTEXT
  5
1EE
102
{ACAD_REACTORS
330
1EB
102
}
102
{ACAD_XDICTIONARY
360
1EC
102
}
330
1F
100
AcDbEntity
  8
Layer_1
  6
Continuous
 62
     7
100
AcDbMText
 10
-960.7603018953371
 20
1447.235044114612
 30
0.0
 40
78.125
 41
0.0
 46
0.0
 71
     9
 72
     1
  1
\A1;雨水コレクター ＧＳ\P雨水コレクターミニ等
  7
_TCW_TXTSTY_1
 73
     1
 44
1.0
  0
LEADER
  5
1F1
102
{ACAD_XDICTIONARY
360
1EF
102
}
330
1F
100
AcDbEntity
  8
Layer_1
  6
Continuous
 62
     7
370
     0
100
AcDbLeader
  3
標準寸法
 73
     0
 76
     4
 10
403.4429140418983
 20
192.1571152205279
 30
0.0
 10
1173.736399310985
 20
-95.68939769581493
 30
0.0
 10
1579.15402313682
 20
-95.68939769581493
 30
0.0
 10
3781.15402313682
 20
-95.68939769581493
 30
0.0
340
1F4
1001
ACAD
1000
DSTYLE
1002
{
1070
   148
1040
0.01
1070
    45
1040
0.01
1002
}
  0
MTEXT
  5
1F4
102
{ACAD_REACTORS
330
1F1
102
}
102
{ACAD_XDICTIONARY
360
1F2
102
}
330
1F
100
AcDbEntity
  8
Layer_1
  6
Continuous
 62
     7
100
AcDbMText
 10
1581.15402313682
 20
-81.18939769581493
 30
0.0
 40
78.125
 41
0.0
 46
0.0
 71
     7
 72
     1
  1
\A1;砲金カランもしくは鍵付き水栓＜サイズ２０Ａ＞
  7
_TCW_TXTSTY_1
 73
     1
 44
1.0
  0
LEADER
  5
1F7
102
{ACAD_XDICTIONARY
360
1F5
102
}
330
1F
100
AcDbEntity
  8
Layer_1
  6
Continuous
 62
     7
370
     0
100
AcDbLeader
  3
標準寸法
 73
     0
 76
     4
 10
395.3345616391678
 20
-79.51949168031308
 30
0.0
 10
1037.054636088283
 20
-464.6194353773251
 30
0.0
 10
1650.699457280249
 20
-464.6194353773251
 30
0.0
 10
2652.699457280249
 20
-464.6194353773251
 30
0.0
340
1FA
1001
ACAD
1000
DSTYLE
1002
{
1070
   148
1040
0.01
1070
    45
1040
0.01
1002
}
  0
MTEXT
  5
1FA
102
{ACAD_REACTORS
330
1F7
102
}
102
{ACAD_XDICTIONARY
360
1F8
102
}
330
1F
100
AcDbEntity
  8
Layer_1
  6
Continuous
 62
     7
100
AcDbMText
 10
1652.699457280249
 20
-450.1194353773251
 30
0.0
 40
78.125
 41
0.0
 46
0.0
 71
     7
 72
     1
  1
\A1;ドレインバルブ２０Ａ\Pホース３０ｃｍ付き
  7
_TCW_TXTSTY_1
 73
     1
 44
1.0
  0
LEADER
  5
1FD
102
{ACAD_XDICTIONARY
360
1FB
102
}
330
1F
100
AcDbEntity
  8
Layer_1
  6
Continuous
 62
     7
370
     0
100
AcDbLeader
  3
標準寸法
 73
     0
 76
     4
 10
184.5173974889306
 20
-63.25598800502758
 30
0.0
 10
-74.94988175960378
 20
350.2699882973238
 30
0.0
 10
-1023.627121512058
 20
358.3783407738404
 30
0.0
 10
-2225.583220052922
 20
368.6514698211985
 30
0.0
340
200
1001
ACAD
1000
DSTYLE
1002
{
1070
   148
1040
0.01
1070
    45
1040
0.01
1002
}
  0
MTEXT
  5
200
102
{ACAD_REACTORS
330
1FD
102
}
102
{ACAD_XDICTIONARY
360
1FE
102
}
330
1F
100
AcDbEntity
  8
Layer_1
  6
Continuous
 62
     7
100
AcDbMText
 10
-1025.503121367212
 20
372.8949045732892
 30
0.0
 40
78.125
 41
0.0
 46
0.0
 71
     9
 72
     1
  1
\A1;ステンレス架台Ｈ＝４００
  7
_TCW_TXTSTY_1
 11
0.9999634763235143
 21
-0.008546696378857748
 31
0.0
 73
     1
 44
1.0
  0
LEADER
  5
203
102
{ACAD_XDICTIONARY
360
201
102
}
330
1F
100
AcDbEntity
  8
Layer_1
  6
Continuous
 62
     7
370
     0
100
AcDbLeader
  3
標準寸法
 73
     0
 76
     4
 10
443.984676737465
 20
901.6379567004597
 30
0.0
 10
935.3662091197527
 20
1485.439335009662
 30
0.0
 10
1901.185083112525
 20
1485.439335009662
 30
0.0
 10
3403.185083112525
 20
1485.439335009662
 30
0.0
340
206
1001
ACAD
1000
DSTYLE
1002
{
1070
   148
1040
0.01
1070
    45
1040
0.01
1002
}
  0
MTEXT
  5
206
102
{ACAD_REACTORS
330
203
102
}
102
{ACAD_XDICTIONARY
360
204
102
}
330
1F
100
AcDbEntity
  8
Layer_1
  6
Continuous
 62
     7
100
AcDbMText
 10
1903.185083112525
 20
1499.939335009662
 30
0.0
 40
78.125
 41
0.0
 46
0.0
 71
     7
 72
     1
  1
\A1;高密度ポリエチレン製　色　紺色
  7
_TCW_TXTSTY_1
 73
     1
 44
1.0
  0
LEADER
  5
209
102
{ACAD_XDICTIONARY
360
207
102
}
330
1F
100
AcDbEntity
  8
Layer_1
  6
Continuous
 62
     7
370
     0
100
AcDbLeader
  3
標準寸法
 73
     0
 76
     3
 10
-1007.21620672658
 20
652.5457699845331
 30
0.0
 10
-593.6902304242278
 20
644.4374175080163
 30
0.0
 10
208.1556425444653
 20
628.714949410591
 30
0.0
340
20C
1001
ACAD
1000
DSTYLE
1002
{
1070
   148
1040
0.01
1070
    45
1040
0.01
1002
}
  0
MTEXT
  5
20C
102
{ACAD_REACTORS
330
209
102
}
102
{ACAD_XDICTIONARY
360
20A
102
}
330
1F
100
AcDbEntity
  8
Layer_1
  6
Continuous
 62
     7
100
AcDbMText
 10
-591.4063556943646
 20
658.8954227721699
 30
0.0
 40
78.125
 41
0.0
 46
0.0
 71
     7
 72
     1
  1
\A1;離れたトイから\P雨水を集める場合
  7
_TCW_TXTSTY_1
 11
0.9998078216567239
 21
-0.01960407493447678
 31
0.0
 73
     1
 44
1.0
  0
LWPOLYLINE
  5
20F
102
{ACAD_XDICTIONARY
360
20D
102
}
330
1F
100
AcDbEntity
  8
Layer_1
  6
Continuous
 62
     7
370
     0
100
AcDbPolyline
 90
        4
 70
   129
 43
0.0
 10
492.6347913285854
 20
1335.434814346944
 10
460.2013814225184
 20
1335.434814346944
 10
460.2013814225184
 20
1311.109756917394
 10
492.6347913285854
 20
1311.109756917394
  0
LEADER
  5
212
102
{ACAD_XDICTIONARY
360
210
102
}
330
1F
100
AcDbEntity
  8
Layer_1
  6
Continuous
 62
     7
370
     0
100
AcDbLeader
  3
標準寸法
 73
     0
 75
     1
 76
     4
 10
-1168.563922253683
 20
1172.254220819173
 30
0.0
 10
-471.2456092732466
 20
1435.775676305966
 30
0.0
 10
-466.3747450075518
 20
1436.482688964514
 30
0.0
 10
-469.3747450075518
 20
1436.482688964514
 30
0.0
340
215
1001
ACAD
1000
DSTYLE
1002
{
1070
   148
1040
0.01
1070
    45
1040
0.01
1002
}
  0
MTEXT
  5
215
102
{ACAD_REACTORS
330
212
102
}
102
{ACAD_XDICTIONARY
360
213
102
}
330
1F
100
AcDbEntity
  8
Layer_1
  6
Continuous
 62
     7
100
AcDbMText
 10
-474.5005867820197
 20
1450.046454890801
 30
0.0
 40
78.125
 41
0.0
 46
0.0
 71
     7
 72
     1
  1
\A1;\P
  7
_TCW_TXTSTY_1
 11
0.9354321328474254
 21
0.3535063292736306
 31
0.0
 73
     1
 44
1.0
  0
VIEWPORT
  5
216
330
1B
100
AcDbEntity
 67
     1
  8
0
100
AcDbViewport
 10
38.9922631578948
 20
180.590052631579
 30
0.0
 40
605.8800000000005
 41
476.0071578947371
 68
     1
 69
     1
 12
38.9922631578948
 22
180.590052631579
 13
0.0
 23
0.0
 14
5.0
 24
5.0
 15
5.0
 25
5.0
 16
0.0
 26
0.0
 36
1.0
 17
0.0
 27
0.0
 37
0.0
 42
50.0
 43
0.0
 44
0.0
 45
476.0071578947371
 50
0.0
 51
0.0
 72
  1000
 90
    32800
  1

281
     0
 71
     1
 74
     0
110
0.0
120
0.0
130
0.0
111
1.0
121
0.0
131
0.0
112
0.0
122
1.0
132
0.0
 79
     0
146
0.0
170
     0
 61
     5
292
     1
282
     1
141
0.0
142
0.0
 63
   256
  0
VIEWPORT
  5
217
330
1B
100
AcDbEntity
 67
     1
  8
Layer_1
  6
Continuous
 62
     7
100
AcDbViewport
 10
150.6017368421053
 20
103.1881578947368
 30
-0.0000000000000016
 40
261.9923684733498
 41
177.6330000372226
 68
     2
 69
     2
 12
0.0001608205649813
 22
0.0000437444653016
 13
0.0
 23
0.0
 14
0.5
 24
0.5
 15
0.0
 25
0.0
 16
0.0
 26
0.0
 36
1.0
 17
842.8142644930233
 27
742.0047672782314
 37
0.0
 42
50.0
 43
0.0
 44
0.0
 45
4398.024214692087
 50
0.0
 51
0.0
 72
   100
 90
   557152
  1

281
     0
 71
     1
 74
     0
110
0.0
120
0.0
130
0.0
111
1.0
121
0.0
131
0.0
112
0.0
122
1.0
132
0.0
 79
     0
146
0.0
170
     0
 61
     5
292
     1
282
     1
141
0.0
142
0.0
 63
   256
  0
TEXT
  5
21A
102
{ACAD_XDICTIONARY
360
218
102
}
330
1B
100
AcDbEntity
 67
     1
  8
Layer_1
  6
Continuous
 62
     7
100
AcDbText
 10
89.28900001046516
 20
177.8094736778329
 30
0.0
 40
3.90625
  1
レインワールド号　容量２４０Ｌ、２００Ｌ
  7
_TCW_TXTSTY_1
 11
89.28900001046516
 21
181.7157236778329
 31
0.0
100
AcDbText
 73
     3
  0
ENDSEC
  0
SECTION
  2
OBJECTS
  0
DICTIONARY
  5
C
330
0
100
AcDbDictionary
281
     1
  3
ACAD_GROUP
350
D
  3
ACAD_LAYOUT
350
1A
  3
ACAD_MLEADERSTYLE
350
21B
  3
ACAD_MLINESTYLE
350
17
  3
ACAD_PLOTSETTINGS
350
19
  3
ACAD_PLOTSTYLENAME
350
E
  3
ACAD_SCALELIST
350
3B
  3
ACAD_TABLESTYLE
350
70
  3
ACAD_VISUALSTYLE
350
2A
  0
DICTIONARY
  5
72
330
74
100
AcDbDictionary
280
     1
281
     1
  3
TC_OPTIONAL_DATA
360
73
  0
DICTIONARY
  5
75
330
77
100
AcDbDictionary
280
     1
281
     1
  3
TC_OPTIONAL_DATA
360
76
  0
DICTIONARY
  5
78
330
7A
100
AcDbDictionary
280
     1
281
     1
  3
TC_OPTIONAL_DATA
360
79
  0
DICTIONARY
  5
7B
330
7D
100
AcDbDictionary
280
     1
281
     1
  3
TC_OPTIONAL_DATA
360
7C
  0
DICTIONARY
  5
7E
330
80
100
AcDbDictionary
280
     1
281
     1
  3
TC_OPTIONAL_DATA
360
7F
  0
DICTIONARY
  5
81
330
83
100
AcDbDictionary
280
     1
281
     1
  3
TC_OPTIONAL_DATA
360
82
  0
DICTIONARY
  5
84
330
86
100
AcDbDictionary
280
     1
281
     1
  3
TC_OPTIONAL_DATA
360
85
  0
DICTIONARY
  5
87
330
89
100
AcDbDictionary
280
     1
281
     1
  3
TC_OPTIONAL_DATA
360
88
  0
DICTIONARY
  5
8A
330
8C
100
AcDbDictionary
280
     1
281
     1
  3
TC_OPTIONAL_DATA
360
8B
  0
DICTIONARY
  5
8D
330
8F
100
AcDbDictionary
280
     1
281
     1
  3
TC_OPTIONAL_DATA
360
8E
  0
DICTIONARY
  5
90
330
92
100
AcDbDictionary
280
     1
281
     1
  3
TC_OPTIONAL_DATA
360
91
  0
DICTIONARY
  5
93
330
95
100
AcDbDictionary
280
     1
281
     1
  3
TC_OPTIONAL_DATA
360
94
  0
DICTIONARY
  5
96
330
98
100
AcDbDictionary
280
     1
281
     1
  3
TC_OPTIONAL_DATA
360
97
  0
DICTIONARY
  5
99
330
9B
100
AcDbDictionary
280
     1
281
     1
  3
TC_OPTIONAL_DATA
360
9A
  0
DICTIONARY
  5
9C
330
9E
100
AcDbDictionary
280
     1
281
     1
  3
TC_OPTIONAL_DATA
360
9D
  0
DICTIONARY
  5
9F
330
A1
100
AcDbDictionary
280
     1
281
     1
  3
TC_OPTIONAL_DATA
360
A0
  0
DICTIONARY
  5
A2
330
A4
100
AcDbDictionary
280
     1
281
     1
  3
TC_OPTIONAL_DATA
360
A3
  0
DICTIONARY
  5
A5
330
A7
100
AcDbDictionary
280
     1
281
     1
  3
TC_OPTIONAL_DATA
360
A6
  0
DICTIONARY
  5
A8
330
AA
100
AcDbDictionary
280
     1
281
     1
  3
TC_OPTIONAL_DATA
360
A9
  0
DICTIONARY
  5
AB
330
AD
100
AcDbDictionary
280
     1
281
     1
  3
TC_OPTIONAL_DATA
360
AC
  0
DICTIONARY
  5
AE
330
B0
100
AcDbDictionary
280
     1
281
     1
  3
TC_OPTIONAL_DATA
360
AF
  0
DICTIONARY
  5
B1
330
B3
100
AcDbDictionary
280
     1
281
     1
  3
TC_OPTIONAL_DATA
360
B2
  0
DICTIONARY
  5
B4
330
B6
100
AcDbDictionary
280
     1
281
     1
  3
TC_OPTIONAL_DATA
360
B5
  0
DICTIONARY
  5
B7
330
B9
100
AcDbDictionary
280
     1
281
     1
  3
TC_OPTIONAL_DATA
360
B8
  0
DICTIONARY
  5
BA
330
BC
100
AcDbDictionary
280
     1
281
     1
  3
TC_OPTIONAL_DATA
360
BB
  0
DICTIONARY
  5
BD
330
BF
100
AcDbDictionary
280
     1
281
     1
  3
TC_OPTIONAL_DATA
360
BE
  0
DICTIONARY
  5
C0
330
C2
100
AcDbDictionary
280
     1
281
     1
  3
TC_OPTIONAL_DATA
360
C1
  0
DICTIONARY
  5
C3
330
C5
100
AcDbDictionary
280
     1
281
     1
  3
TC_OPTIONAL_DATA
360
C4
  0
DICTIONARY
  5
C6
330
C8
100
AcDbDictionary
280
     1
281
     1
  3
TC_OPTIONAL_DATA
360
C7
  0
DICTIONARY
  5
C9
330
CB
100
AcDbDictionary
280
     1
281
     1
  3
TC_OPTIONAL_DATA
360
CA
  0
DICTIONARY
  5
CC
330
CE
100
AcDbDictionary
280
     1
281
     1
  3
TC_OPTIONAL_DATA
360
CD
  0
DICTIONARY
  5
CF
330
D1
100
AcDbDictionary
280
     1
281
     1
  3
TC_OPTIONAL_DATA
360
D0
  0
DICTIONARY
  5
D2
330
D4
100
AcDbDictionary
280
     1
281
     1
  3
TC_OPTIONAL_DATA
360
D3
  0
DICTIONARY
  5
D5
330
D7
100
AcDbDictionary
280
     1
281
     1
  3
TC_OPTIONAL_DATA
360
D6
  0
DICTIONARY
  5
D8
330
DA
100
AcDbDictionary
280
     1
281
     1
  3
TC_OPTIONAL_DATA
360
D9
  0
DICTIONARY
  5
DB
330
DD
100
AcDbDictionary
280
     1
281
     1
  3
TC_OPTIONAL_DATA
360
DC
  0
DICTIONARY
  5
DE
330
E0
100
AcDbDictionary
280
     1
281
     1
  3
TC_OPTIONAL_DATA
360
DF
  0
DICTIONARY
  5
E1
330
E3
100
AcDbDictionary
280
     1
281
     1
  3
TC_OPTIONAL_DATA
360
E2
  0
DICTIONARY
  5
E4
330
E6
100
AcDbDictionary
280
     1
281
     1
  3
TC_OPTIONAL_DATA
360
E5
  0
DICTIONARY
  5
E7
330
E9
100
AcDbDictionary
280
     1
281
     1
  3
TC_OPTIONAL_DATA
360
E8
  0
DICTIONARY
  5
EA
330
EC
100
AcDbDictionary
280
     1
281
     1
  3
TC_OPTIONAL_DATA
360
EB
  0
DICTIONARY
  5
ED
330
EF
100
AcDbDictionary
280
     1
281
     1
  3
TC_OPTIONAL_DATA
360
EE
  0
DICTIONARY
  5
F0
330
F2
100
AcDbDictionary
280
     1
281
     1
  3
TC_OPTIONAL_DATA
360
F1
  0
DICTIONARY
  5
F3
330
F5
100
AcDbDictionary
280
     1
281
     1
  3
TC_OPTIONAL_DATA
360
F4
  0
DICTIONARY
  5
F6
330
F8
100
AcDbDictionary
280
     1
281
     1
  3
TC_OPTIONAL_DATA
360
F7
  0
DICTIONARY
  5
106
330
108
100
AcDbDictionary
280
     1
281
     1
  3
TC_OPTIONAL_DATA
360
107
  0
DICTIONARY
  5
115
330
117
100
AcDbDictionary
280
     1
281
     1
  3
TC_OPTIONAL_DATA
360
116
  0
DICTIONARY
  5
124
330
126
100
AcDbDictionary
280
     1
281
     1
  3
TC_OPTIONAL_DATA
360
125
  0
DICTIONARY
  5
127
330
129
100
AcDbDictionary
280
     1
281
     1
  3
TC_OPTIONAL_DATA
360
128
  0
DICTIONARY
  5
12A
330
12C
100
AcDbDictionary
280
     1
281
     1
  3
TC_OPTIONAL_DATA
360
12B
  0
DICTIONARY
  5
12D
330
12F
100
AcDbDictionary
280
     1
281
     1
  3
TC_OPTIONAL_DATA
360
12E
  0
DICTIONARY
  5
13C
330
13E
100
AcDbDictionary
280
     1
281
     1
  3
TC_OPTIONAL_DATA
360
13D
  0
DICTIONARY
  5
13F
330
141
100
AcDbDictionary
280
     1
281
     1
  3
TC_OPTIONAL_DATA
360
140
  0
DICTIONARY
  5
142
330
144
100
AcDbDictionary
280
     1
281
     1
  3
TC_OPTIONAL_DATA
360
143
  0
DICTIONARY
  5
145
330
148
100
AcDbDictionary
280
     1
281
     1
  3
TC_OPTIONAL_DATA
360
146
  0
DICTIONARY
  5
149
330
14B
100
AcDbDictionary
280
     1
281
     1
  3
TC_OPTIONAL_DATA
360
14A
  0
DICTIONARY
  5
158
330
15A
100
AcDbDictionary
280
     1
281
     1
  3
TC_OPTIONAL_DATA
360
159
  0
DICTIONARY
  5
167
330
169
100
AcDbDictionary
280
     1
281
     1
  3
TC_OPTIONAL_DATA
360
168
  0
DICTIONARY
  5
16A
330
16C
100
AcDbDictionary
280
     1
281
     1
  3
TC_OPTIONAL_DATA
360
16B
  0
DICTIONARY
  5
16D
330
16F
100
AcDbDictionary
280
     1
281
     1
  3
TC_OPTIONAL_DATA
360
16E
  0
DICTIONARY
  5
170
330
172
100
AcDbDictionary
280
     1
281
     1
  3
TC_OPTIONAL_DATA
360
171
  0
DICTIONARY
  5
173
330
175
100
AcDbDictionary
280
     1
281
     1
  3
TC_OPTIONAL_DATA
360
174
  0
DICTIONARY
  5
1A5
330
1A7
100
AcDbDictionary
280
     1
281
     1
  3
TC_OPTIONAL_DATA
360
1A6
  0
DICTIONARY
  5
1D7
330
1D9
100
AcDbDictionary
280
     1
281
     1
  3
TC_OPTIONAL_DATA
360
1D8
  0
DICTIONARY
  5
1DA
330
1DC
100
AcDbDictionary
280
     1
281
     1
  3
TC_OPTIONAL_DATA
360
1DB
  0
DICTIONARY
  5
1DD
330
1DF
100
AcDbDictionary
280
     1
281
     1
  3
TC_OPTIONAL_DATA
360
1DE
  0
DICTIONARY
  5
1E0
330
1E2
100
AcDbDictionary
280
     1
281
     1
  3
TC_OPTIONAL_DATA
360
1E1
  0
DICTIONARY
  5
1E3
330
1E5
100
AcDbDictionary
280
     1
281
     1
  3
TC_OPTIONAL_DATA
360
1E4
  0
DICTIONARY
  5
1E6
330
1E8
100
AcDbDictionary
280
     1
281
     1
  3
TC_OPTIONAL_DATA
360
1E7
  0
DICTIONARY
  5
1E9
330
1EB
100
AcDbDictionary
280
     1
281
     1
  3
TC_OPTIONAL_DATA
360
1EA
  0
DICTIONARY
  5
1EC
330
1EE
100
AcDbDictionary
280
     1
281
     1
  3
TC_OPTIONAL_DATA
360
1ED
  0
DICTIONARY
  5
1EF
330
1F1
100
AcDbDictionary
280
     1
281
     1
  3
TC_OPTIONAL_DATA
360
1F0
  0
DICTIONARY
  5
1F2
330
1F4
100
AcDbDictionary
280
     1
281
     1
  3
TC_OPTIONAL_DATA
360
1F3
  0
DICTIONARY
  5
1F5
330
1F7
100
AcDbDictionary
280
     1
281
     1
  3
TC_OPTIONAL_DATA
360
1F6
  0
DICTIONARY
  5
1F8
330
1FA
100
AcDbDictionary
280
     1
281
     1
  3
TC_OPTIONAL_DATA
360
1F9
  0
DICTIONARY
  5
1FB
330
1FD
100
AcDbDictionary
280
     1
281
     1
  3
TC_OPTIONAL_DATA
360
1FC
  0
DICTIONARY
  5
1FE
330
200
100
AcDbDictionary
280
     1
281
     1
  3
TC_OPTIONAL_DATA
360
1FF
  0
DICTIONARY
  5
201
330
203
100
AcDbDictionary
280
     1
281
     1
  3
TC_OPTIONAL_DATA
360
202
  0
DICTIONARY
  5
204
330
206
100
AcDbDictionary
280
     1
281
     1
  3
TC_OPTIONAL_DATA
360
205
  0
DICTIONARY
  5
207
330
209
100
AcDbDictionary
280
     1
281
     1
  3
TC_OPTIONAL_DATA
360
208
  0
DICTIONARY
  5
20A
330
20C
100
AcDbDictionary
280
     1
281
     1
  3
TC_OPTIONAL_DATA
360
20B
  0
DICTIONARY
  5
20D
330
20F
100
AcDbDictionary
280
     1
281
     1
  3
TC_OPTIONAL_DATA
360
20E
  0
DICTIONARY
  5
210
330
212
100
AcDbDictionary
280
     1
281
     1
  3
TC_OPTIONAL_DATA
360
211
  0
DICTIONARY
  5
213
330
215
100
AcDbDictionary
280
     1
281
     1
  3
TC_OPTIONAL_DATA
360
214
  0
DICTIONARY
  5
218
330
21A
100
AcDbDictionary
280
     1
281
     1
  3
TC_OPTIONAL_DATA
360
219
  0
DICTIONARY
  5
D
102
{ACAD_REACTORS
330
C
102
}
330
C
100
AcDbDictionary
281
     1
  0
DICTIONARY
  5
1A
102
{ACAD_REACTORS
330
C
102
}
330
C
100
AcDbDictionary
281
     1
  3
Model
350
22
  3
ペーパー 1
350
1E
  0
DICTIONARY
  5
21B
102
{ACAD_REACTORS
330
C
102
}
330
C
100
AcDbDictionary
281
     1
  0
DICTIONARY
  5
17
102
{ACAD_REACTORS
330
C
102
}
330
C
100
AcDbDictionary
281
     1
  3
Standard
350
18
  3
TCW_MLSTYLE_0
350
147
  0
DICTIONARY
  5
19
102
{ACAD_REACTORS
330
C
102
}
330
C
100
AcDbDictionary
281
     1
  0
ACDBDICTIONARYWDFLT
  5
E
102
{ACAD_REACTORS
330
C
102
}
330
C
100
AcDbDictionary
281
     1
  3
Normal
350
F
100
AcDbDictionaryWithDefault
340
F
  0
DICTIONARY
  5
3B
102
{ACAD_REACTORS
330
C
102
}
330
C
100
AcDbDictionary
281
     1
  3
A0
350
3C
  3
A1
350
3D
  3
A2
350
3E
  3
A3
350
3F
  3
A4
350
40
  3
A5
350
41
  3
A6
350
42
  3
A7
350
43
  3
A8
350
44
  3
A9
350
45
  3
B0
350
46
  3
B1
350
47
  3
B2
350
48
  3
B3
350
49
  3
B4
350
4A
  3
B5
350
4B
  3
B6
350
4C
  3
B7
350
4D
  3
B8
350
4E
  3
B9
350
4F
  3
C0
350
50
  3
C1
350
51
  3
C2
350
52
  3
C3
350
53
  3
C4
350
54
  3
C5
350
55
  3
C6
350
56
  3
C7
350
57
  3
C8
350
58
  3
C9
350
59
  3
D0
350
5A
  3
D1
350
5B
  3
D2
350
5C
  0
DICTIONARY
  5
70
102
{ACAD_REACTORS
330
C
102
}
330
C
100
AcDbDictionary
281
     1
  3
標準
350
71
  0
DICTIONARY
  5
2A
102
{ACAD_REACTORS
330
C
102
}
330
C
100
AcDbDictionary
281
     1
  3
2dWireframe
350
2F
  3
3D Hidden
350
31
  3
3dWireframe
350
30
  3
Basic
350
32
  3
Brighten
350
36
  3
ColorChange
350
3A
  3
Conceptual
350
34
  3
Dim
350
35
  3
Facepattern
350
39
  3
Flat
350
2B
  3
FlatWithEdges
350
2C
  3
Gouraud
350
2D
  3
GouraudWithEdges
350
2E
  3
Linepattern
350
38
  3
Realistic
350
33
  3
Thicken
350
37
  0
TCOPTIONALDATA
  5
73
102
{ACAD_REACTORS
330
72
102
}
330
72
100
TcOptionalData
 70
     1
 70
   128
 90
        1
  1
#$AUX@_ToolInfo Properties
 70
     8
  1
CMD_LINE@
  0
TCOPTIONALDATA
  5
76
102
{ACAD_REACTORS
330
75
102
}
330
75
100
TcOptionalData
 70
     1
 70
   128
 90
        1
  1
#$AUX@_ToolInfo Properties
 70
     8
  1
CMD_LINE@
  0
TCOPTIONALDATA
  5
79
102
{ACAD_REACTORS
330
78
102
}
330
78
100
TcOptionalData
 70
     1
 70
   128
 90
        1
  1
#$AUX@_ToolInfo Properties
 70
     8
  1
CMD_LINE@
  0
TCOPTIONALDATA
  5
7C
102
{ACAD_REACTORS
330
7B
102
}
330
7B
100
TcOptionalData
 70
     1
 70
   128
 90
        1
  1
#$AUX@_ToolInfo Properties
 70
     8
  1
CMD_LINE@
  0
TCOPTIONALDATA
  5
7F
102
{ACAD_REACTORS
330
7E
102
}
330
7E
100
TcOptionalData
 70
     1
 70
   128
 90
        1
  1
#$AUX@_ToolInfo Properties
 70
     8
  1
CMD_LINE@
  0
TCOPTIONALDATA
  5
82
102
{ACAD_REACTORS
330
81
102
}
330
81
100
TcOptionalData
 70
     1
 70
   128
 90
        1
  1
#$AUX@_ToolInfo Properties
 70
     8
  1
CMD_LINE@
  0
TCOPTIONALDATA
  5
85
102
{ACAD_REACTORS
330
84
102
}
330
84
100
TcOptionalData
 70
     1
 70
   128
 90
        1
  1
#$AUX@_ToolInfo Properties
 70
     8
  1
CMD_LINE@
  0
TCOPTIONALDATA
  5
88
102
{ACAD_REACTORS
330
87
102
}
330
87
100
TcOptionalData
 70
     1
 70
   128
 90
        1
  1
#$AUX@_ToolInfo Properties
 70
     8
  1
CMD_LINE@
  0
TCOPTIONALDATA
  5
8B
102
{ACAD_REACTORS
330
8A
102
}
330
8A
100
TcOptionalData
 70
     1
 70
   128
 90
        1
  1
#$AUX@_ToolInfo Properties
 70
     8
  1
CMD_LINE@
  0
TCOPTIONALDATA
  5
8E
102
{ACAD_REACTORS
330
8D
102
}
330
8D
100
TcOptionalData
 70
     1
 70
   128
 90
        1
  1
#$AUX@_ToolInfo Properties
 70
     8
  1
CMD_LINE@
  0
TCOPTIONALDATA
  5
91
102
{ACAD_REACTORS
330
90
102
}
330
90
100
TcOptionalData
 70
     1
 70
   128
 90
        1
  1
#$AUX@_ToolInfo Properties
 70
     8
  1
CMD_LINE@
  0
TCOPTIONALDATA
  5
94
102
{ACAD_REACTORS
330
93
102
}
330
93
100
TcOptionalData
 70
     1
 70
   128
 90
        1
  1
#$AUX@_ToolInfo Properties
 70
     8
  1
CMD_LINE@
  0
TCOPTIONALDATA
  5
97
102
{ACAD_REACTORS
330
96
102
}
330
96
100
TcOptionalData
 70
     1
 70
   128
 90
        1
  1
#$AUX@_ToolInfo Properties
 70
     8
  1
CMD_LINE@
  0
TCOPTIONALDATA
  5
9A
102
{ACAD_REACTORS
330
99
102
}
330
99
100
TcOptionalData
 70
     1
 70
   128
 90
        1
  1
#$AUX@_ToolInfo Properties
 70
     8
  1
CMD_RECTANGLE@
  0
TCOPTIONALDATA
  5
9D
102
{ACAD_REACTORS
330
9C
102
}
330
9C
100
TcOptionalData
 70
     1
 70
   128
 90
        1
  1
#$AUX@_ToolInfo Properties
 70
     8
  1
CMD_LINE@
  0
TCOPTIONALDATA
  5
A0
102
{ACAD_REACTORS
330
9F
102
}
330
9F
100
TcOptionalData
 70
     1
 70
   128
 90
        1
  1
#$AUX@_ToolInfo Properties
 70
     8
  1
CMD_LINE@
  0
TCOPTIONALDATA
  5
A3
102
{ACAD_REACTORS
330
A2
102
}
330
A2
100
TcOptionalData
 70
     1
 70
   128
 90
        1
  1
#$AUX@_ToolInfo Properties
 70
     8
  1
CMD_LINE@
  0
TCOPTIONALDATA
  5
A6
102
{ACAD_REACTORS
330
A5
102
}
330
A5
100
TcOptionalData
 70
     1
 70
   128
 90
        1
  1
#$AUX@_ToolInfo Properties
 70
     8
  1
CMD_LINE@
  0
TCOPTIONALDATA
  5
A9
102
{ACAD_REACTORS
330
A8
102
}
330
A8
100
TcOptionalData
 70
     1
 70
   128
 90
        1
  1
#$AUX@_ToolInfo Properties
 70
     8
  1
CMD_LINE@
  0
TCOPTIONALDATA
  5
AC
102
{ACAD_REACTORS
330
AB
102
}
330
AB
100
TcOptionalData
 70
     1
 70
   128
 90
        1
  1
#$AUX@_ToolInfo Properties
 70
     8
  1
CMD_LINE@
  0
TCOPTIONALDATA
  5
AF
102
{ACAD_REACTORS
330
AE
102
}
330
AE
100
TcOptionalData
 70
     1
 70
   128
 90
        1
  1
#$AUX@_ToolInfo Properties
 70
     8
  1
CMD_LINE@
  0
TCOPTIONALDATA
  5
B2
102
{ACAD_REACTORS
330
B1
102
}
330
B1
100
TcOptionalData
 70
     1
 70
   128
 90
        1
  1
#$AUX@_ToolInfo Properties
 70
     8
  1
CMD_LINE@
  0
TCOPTIONALDATA
  5
B5
102
{ACAD_REACTORS
330
B4
102
}
330
B4
100
TcOptionalData
 70
     1
 70
   128
 90
        1
  1
#$AUX@_ToolInfo Properties
 70
     8
  1
CMD_LINE@
  0
TCOPTIONALDATA
  5
B8
102
{ACAD_REACTORS
330
B7
102
}
330
B7
100
TcOptionalData
 70
     1
 70
   128
 90
        1
  1
#$AUX@_ToolInfo Properties
 70
     8
  1
CMD_LINE@
  0
TCOPTIONALDATA
  5
BB
102
{ACAD_REACTORS
330
BA
102
}
330
BA
100
TcOptionalData
 70
     1
 70
   128
 90
        1
  1
#$AUX@_ToolInfo Properties
 70
     8
  1
CMD_LINE@
  0
TCOPTIONALDATA
  5
BE
102
{ACAD_REACTORS
330
BD
102
}
330
BD
100
TcOptionalData
 70
     1
 70
   128
 90
        1
  1
#$AUX@_ToolInfo Properties
 70
     8
  1
CMD_LINE@
  0
TCOPTIONALDATA
  5
C1
102
{ACAD_REACTORS
330
C0
102
}
330
C0
100
TcOptionalData
 70
     1
 70
   128
 90
        1
  1
#$AUX@_ToolInfo Properties
 70
     8
  1
CMD_LINE@
  0
TCOPTIONALDATA
  5
C4
102
{ACAD_REACTORS
330
C3
102
}
330
C3
100
TcOptionalData
 70
     1
 70
   128
 90
        1
  1
#$AUX@_ToolInfo Properties
 70
     8
  1
CMD_LINE@
  0
TCOPTIONALDATA
  5
C7
102
{ACAD_REACTORS
330
C6
102
}
330
C6
100
TcOptionalData
 70
     1
 70
   128
 90
        1
  1
#$AUX@_ToolInfo Properties
 70
     8
  1
CMD_LINE@
  0
TCOPTIONALDATA
  5
CA
102
{ACAD_REACTORS
330
C9
102
}
330
C9
100
TcOptionalData
 70
     1
 70
   128
 90
        1
  1
#$AUX@_ToolInfo Properties
 70
     8
  1
CMD_LINE@
  0
TCOPTIONALDATA
  5
CD
102
{ACAD_REACTORS
330
CC
102
}
330
CC
100
TcOptionalData
 70
     1
 70
   128
 90
        1
  1
#$AUX@_ToolInfo Properties
 70
     8
  1
CMD_LINE@
  0
TCOPTIONALDATA
  5
D0
102
{ACAD_REACTORS
330
CF
102
}
330
CF
100
TcOptionalData
 70
     1
 70
   128
 90
        1
  1
#$AUX@_ToolInfo Properties
 70
     8
  1
CMD_LINE@
  0
TCOPTIONALDATA
  5
D3
102
{ACAD_REACTORS
330
D2
102
}
330
D2
100
TcOptionalData
 70
     1
 70
   128
 90
        1
  1
#$AUX@_ToolInfo Properties
 70
     8
  1
CMD_LINE@
  0
TCOPTIONALDATA
  5
D6
102
{ACAD_REACTORS
330
D5
102
}
330
D5
100
TcOptionalData
 70
     1
 70
   128
 90
        1
  1
#$AUX@_ToolInfo Properties
 70
     8
  1
CMD_LINE@
  0
TCOPTIONALDATA
  5
D9
102
{ACAD_REACTORS
330
D8
102
}
330
D8
100
TcOptionalData
 70
     1
 70
   128
 90
        1
  1
#$AUX@_ToolInfo Properties
 70
     8
  1
CMD_LINE@
  0
TCOPTIONALDATA
  5
DC
102
{ACAD_REACTORS
330
DB
102
}
330
DB
100
TcOptionalData
 70
     1
 70
   128
 90
        1
  1
#$AUX@_ToolInfo Properties
 70
     8
  1
CMD_LINE@
  0
TCOPTIONALDATA
  5
DF
102
{ACAD_REACTORS
330
DE
102
}
330
DE
100
TcOptionalData
 70
     1
 70
   128
 90
        1
  1
#$AUX@_ToolInfo Properties
 70
     8
  1
CMD_FILLETARC@
  0
TCOPTIONALDATA
  5
E2
102
{ACAD_REACTORS
330
E1
102
}
330
E1
100
TcOptionalData
 70
     1
 70
   128
 90
        1
  1
#$AUX@_ToolInfo Properties
 70
     8
  1
CMD_FILLETARC@
  0
TCOPTIONALDATA
  5
E5
102
{ACAD_REACTORS
330
E4
102
}
330
E4
100
TcOptionalData
 70
     1
 70
   128
 90
        1
  1
#$AUX@_ToolInfo Properties
 70
     8
  1
CMD_LINE@
  0
TCOPTIONALDATA
  5
E8
102
{ACAD_REACTORS
330
E7
102
}
330
E7
100
TcOptionalData
 70
     1
 70
   128
 90
        1
  1
#$AUX@_ToolInfo Properties
 70
     8
  1
CMD_FILLETARC@
  0
TCOPTIONALDATA
  5
EB
102
{ACAD_REACTORS
330
EA
102
}
330
EA
100
TcOptionalData
 70
     1
 70
   128
 90
        1
  1
#$AUX@_ToolInfo Properties
 70
     8
  1
CMD_FILLETARC@
  0
TCOPTIONALDATA
  5
EE
102
{ACAD_REACTORS
330
ED
102
}
330
ED
100
TcOptionalData
 70
     1
 70
   128
 90
        1
  1
#$AUX@_ToolInfo Properties
 70
     8
  1
CMD_FILLETARC@
  0
TCOPTIONALDATA
  5
F1
102
{ACAD_REACTORS
330
F0
102
}
330
F0
100
TcOptionalData
 70
     1
 70
   128
 90
        1
  1
#$AUX@_ToolInfo Properties
 70
     8
  1
CMD_LINE@
  0
TCOPTIONALDATA
  5
F4
102
{ACAD_REACTORS
330
F3
102
}
330
F3
100
TcOptionalData
 70
     1
 70
   128
 90
        1
  1
#$AUX@_ToolInfo Properties
 70
     8
  1
CMD_LINE@
  0
TCOPTIONALDATA
  5
F7
102
{ACAD_REACTORS
330
F6
102
}
330
F6
100
TcOptionalData
 70
     1
 70
   128
 90
        1
  1
#$AUX@_ToolInfo Properties
 70
     8
  1
CMD_ORTHOGONALDIM@
  0
TCOPTIONALDATA
  5
107
102
{ACAD_REACTORS
330
106
102
}
330
106
100
TcOptionalData
 70
     1
 70
   128
 90
        1
  1
#$AUX@_ToolInfo Properties
 70
     8
  1
CMD_ORTHOGONALDIM@
  0
TCOPTIONALDATA
  5
116
102
{ACAD_REACTORS
330
115
102
}
330
115
100
TcOptionalData
 70
     1
 70
   128
 90
        1
  1
#$AUX@_ToolInfo Properties
 70
     8
  1
CMD_ORTHOGONALDIM@
  0
TCOPTIONALDATA
  5
125
102
{ACAD_REACTORS
330
124
102
}
330
124
100
TcOptionalData
 70
     1
 70
   128
 90
        1
  1
#$AUX@_ToolInfo Properties
 70
     8
  1
CMD_CENTERPTCIRCLE@
  0
TCOPTIONALDATA
  5
128
102
{ACAD_REACTORS
330
127
102
}
330
127
100
TcOptionalData
 70
     1
 70
   128
 90
        1
  1
#$AUX@_ToolInfo Properties
 70
     8
  1
CMD_RECTANGLE@
  0
TCOPTIONALDATA
  5
12B
102
{ACAD_REACTORS
330
12A
102
}
330
12A
100
TcOptionalData
 70
     1
 70
   128
 90
        1
  1
#$AUX@_ToolInfo Properties
 70
     8
  1
CMD_RECTANGLE@
  0
TCOPTIONALDATA
  5
12E
102
{ACAD_REACTORS
330
12D
102
}
330
12D
100
TcOptionalData
 70
     1
 70
   128
 90
        1
  1
#$AUX@_ToolInfo Properties
 70
     8
  1
CMD_ORTHOGONALDIM@
  0
TCOPTIONALDATA
  5
13D
102
{ACAD_REACTORS
330
13C
102
}
330
13C
100
TcOptionalData
 70
     1
 70
   128
 90
        1
  1
#$AUX@_ToolInfo Properties
 70
     8
  1
CMD_RECTANGLE@
  0
TCOPTIONALDATA
  5
140
102
{ACAD_REACTORS
330
13F
102
}
330
13F
100
TcOptionalData
 70
     1
 70
   128
 90
        1
  1
#$AUX@_ToolInfo Properties
 70
     8
  1
CMD_RECTANGLE@
  0
TCOPTIONALDATA
  5
143
102
{ACAD_REACTORS
330
142
102
}
330
142
100
TcOptionalData
 70
     1
 70
   128
 90
        1
  1
#$AUX@_ToolInfo Properties
 70
     8
  1
CMD_RECTANGLE@
  0
TCOPTIONALDATA
  5
146
102
{ACAD_REACTORS
330
145
102
}
330
145
100
TcOptionalData
 70
     1
 70
   128
 90
        1
  1
#$AUX@_ToolInfo Properties
 70
     8
  1
CMD_MLINE_POLYLINE@
  0
TCOPTIONALDATA
  5
14A
102
{ACAD_REACTORS
330
149
102
}
330
149
100
TcOptionalData
 70
     1
 70
   128
 90
        1
  1
#$AUX@_ToolInfo Properties
 70
     8
  1
CMD_ORTHOGONALDIM@
  0
TCOPTIONALDATA
  5
159
102
{ACAD_REACTORS
330
158
102
}
330
158
100
TcOptionalData
 70
     1
 70
   128
 90
        1
  1
#$AUX@_ToolInfo Properties
 70
     8
  1
CMD_ORTHOGONALDIM@
  0
TCOPTIONALDATA
  5
168
102
{ACAD_REACTORS
330
167
102
}
330
167
100
TcOptionalData
 70
     1
 70
   128
 90
        1
  1
#$AUX@_ToolInfo Properties
 70
     8
  1
CMD_PARALLELLINE@
  0
TCOPTIONALDATA
  5
16B
102
{ACAD_REACTORS
330
16A
102
}
330
16A
100
TcOptionalData
 70
     1
 70
   128
 90
        1
  1
#$AUX@_ToolInfo Properties
 70
     8
  1
CMD_RECTANGLE@
  0
TCOPTIONALDATA
  5
16E
102
{ACAD_REACTORS
330
16D
102
}
330
16D
100
TcOptionalData
 70
     1
 70
   128
 90
        1
  1
#$AUX@_ToolInfo Properties
 70
     8
  1
CMD_RECTANGLE@
  0
TCOPTIONALDATA
  5
171
102
{ACAD_REACTORS
330
170
102
}
330
170
100
TcOptionalData
 70
     1
 70
   128
 90
        1
  1
#$AUX@_ToolInfo Properties
 70
     8
  1
CMD_RECTANGLE@
  0
TCOPTIONALDATA
  5
174
102
{ACAD_REACTORS
330
173
102
}
330
173
100
TcOptionalData
 70
     1
 70
   128
 90
        1
  1
#$AUX@_ToolInfo Properties
 70
     8
  1
CMD_FITCURVE@
  0
TCOPTIONALDATA
  5
1A6
102
{ACAD_REACTORS
330
1A5
102
}
330
1A5
100
TcOptionalData
 70
     1
 70
   128
 90
        1
  1
#$AUX@_ToolInfo Properties
 70
     8
  1
CMD_FITCURVE@
  0
TCOPTIONALDATA
  5
1D8
102
{ACAD_REACTORS
330
1D7
102
}
330
1D7
100
TcOptionalData
 70
     1
 70
   128
 90
        1
  1
#$AUX@_ToolInfo Properties
 70
     8
  1
CMD_RECTANGLE@
  0
TCOPTIONALDATA
  5
1DB
102
{ACAD_REACTORS
330
1DA
102
}
330
1DA
100
TcOptionalData
 70
     1
 70
   128
 90
        1
  1
#$AUX@_ToolInfo Properties
 70
     8
  1
CMD_RECTANGLE@
  0
TCOPTIONALDATA
  5
1DE
102
{ACAD_REACTORS
330
1DD
102
}
330
1DD
100
TcOptionalData
 70
     1
 70
   128
 90
        1
  1
#$AUX@_ToolInfo Properties
 70
     8
  1
CMD_RECTANGLE@
  0
TCOPTIONALDATA
  5
1E1
102
{ACAD_REACTORS
330
1E0
102
}
330
1E0
100
TcOptionalData
 70
     1
 70
   128
 90
        1
  1
#$AUX@_ToolInfo Properties
 70
     8
  1
CMD_PARALLELLINE@
  0
TCOPTIONALDATA
  5
1E4
102
{ACAD_REACTORS
330
1E3
102
}
330
1E3
100
TcOptionalData
 70
     1
 70
   128
 90
        1
  1
#$AUX@_ToolInfo Properties
 70
     8
  1
CMD_POLYLINE@
  0
TCOPTIONALDATA
  5
1E7
102
{ACAD_REACTORS
330
1E6
102
}
330
1E6
100
TcOptionalData
 70
     1
 70
   128
 90
        1
  1
#$AUX@_ToolInfo Properties
 70
     8
  1
CMD_POLYLINE@
  0
TCOPTIONALDATA
  5
1EA
102
{ACAD_REACTORS
330
1E9
102
}
330
1E9
100
TcOptionalData
 70
     1
 70
   128
 90
        1
  1
#$AUX@_ToolInfo Properties
 70
     8
  1
CMD_STRINGDIM@
  0
TCOPTIONALDATA
  5
1ED
102
{ACAD_REACTORS
330
1EC
102
}
330
1EC
100
TcOptionalData
 70
     1
 70
     3
  1
雨水コレクター ＧＳ^M^J雨水コレクターミニ等
 10
-960.7603018953371
 20
1434.735044114612
 30
0.0
  0
TCOPTIONALDATA
  5
1F0
102
{ACAD_REACTORS
330
1EF
102
}
330
1EF
100
TcOptionalData
 70
     1
 70
   128
 90
        1
  1
#$AUX@_ToolInfo Properties
 70
     8
  1
CMD_STRINGDIM@
  0
TCOPTIONALDATA
  5
1F3
102
{ACAD_REACTORS
330
1F2
102
}
330
1F2
100
TcOptionalData
 70
     1
 70
     3
  1
砲金カランもしくは鍵付き水栓＜サイズ２０Ａ＞
 10
1581.15402313682
 20
-93.68939769581493
 30
0.0
  0
TCOPTIONALDATA
  5
1F6
102
{ACAD_REACTORS
330
1F5
102
}
330
1F5
100
TcOptionalData
 70
     1
 70
   128
 90
        1
  1
#$AUX@_ToolInfo Properties
 70
     8
  1
CMD_STRINGDIM@
  0
TCOPTIONALDATA
  5
1F9
102
{ACAD_REACTORS
330
1F8
102
}
330
1F8
100
TcOptionalData
 70
     1
 70
     3
  1
ドレインバルブ２０Ａ^M^Jホース３０ｃｍ付き
 10
1652.699457280249
 20
-462.6194353773251
 30
0.0
  0
TCOPTIONALDATA
  5
1FC
102
{ACAD_REACTORS
330
1FB
102
}
330
1FB
100
TcOptionalData
 70
     1
 70
   128
 90
        1
  1
#$AUX@_ToolInfo Properties
 70
     8
  1
CMD_STRINGDIM@
  0
TCOPTIONALDATA
  5
1FF
102
{ACAD_REACTORS
330
1FE
102
}
330
1FE
100
TcOptionalData
 70
     1
 70
     3
  1
ステンレス架台Ｈ＝４００
 10
-1025.609955071947
 20
360.3953611192453
 30
0.0
  0
TCOPTIONALDATA
  5
202
102
{ACAD_REACTORS
330
201
102
}
330
201
100
TcOptionalData
 70
     1
 70
   128
 90
        1
  1
#$AUX@_ToolInfo Properties
 70
     8
  1
CMD_STRINGDIM@
  0
TCOPTIONALDATA
  5
205
102
{ACAD_REACTORS
330
204
102
}
330
204
100
TcOptionalData
 70
     1
 70
     3
  1
高密度ポリエチレン製　色　紺色
 10
1903.185083112525
 20
1487.439335009662
 30
0.0
  0
TCOPTIONALDATA
  5
208
102
{ACAD_REACTORS
330
207
102
}
330
207
100
TcOptionalData
 70
     1
 70
   128
 90
        1
  1
#$AUX@_ToolInfo Properties
 70
     8
  1
CMD_STRINGDIM@
  0
TCOPTIONALDATA
  5
20B
102
{ACAD_REACTORS
330
20A
102
}
330
20A
100
TcOptionalData
 70
     1
 70
     3
  1
離れたトイから^M^J雨水を集める場合
 10
-591.6514066310456
 20
646.3978250014609
 30
0.0
  0
TCOPTIONALDATA
  5
20E
102
{ACAD_REACTORS
330
20D
102
}
330
20D
100
TcOptionalData
 70
     1
 70
   128
 90
        1
  1
#$AUX@_ToolInfo Properties
 70
     8
  1
CMD_RECTANGLE@
  0
TCOPTIONALDATA
  5
211
102
{ACAD_REACTORS
330
210
102
}
330
210
100
TcOptionalData
 70
     1
 70
   128
 90
        1
  1
#$AUX@_ToolInfo Properties
 70
     8
  1
CMD_STRINGDIM@
  0
TCOPTIONALDATA
  5
214
102
{ACAD_REACTORS
330
213
102
}
330
213
100
TcOptionalData
 70
     1
 70
     3
  1
^M^J
 10
-470.0817576660993
 20
1438.353553230209
 30
0.0
  0
TCOPTIONALDATA
  5
219
102
{ACAD_REACTORS
330
218
102
}
330
218
100
TcOptionalData
 70
     1
 70
   144
 90
        1
  1
#$AUX@_ToolInfo Properties
 70
     8
  1
CMD_TEXT@
  1
ＭＳ ゴシック
 70
     0
  0
LAYOUT
  5
22
102
{ACAD_REACTORS
330
1A
102
}
330
1A
100
AcDbPlotSettings
  1

  2
none_device
  4
ISO_A4_(297.00_x_210.00_MM)
  6

 40
7.5
 41
20.0
 42
7.5
 43
20.0
 44
297.0
 45
210.0
 46
-7.5
 47
-20.0
 48
0.0
 49
0.0
140
0.0
141
0.0
142
1.0
143
78.31714567711197
 70
  1712
 72
     1
 73
     0
 74
     0
  7

 75
     0
 76
     0
 77
     2
 78
   300
147
0.0127685960890713
148
0.0
149
0.0
100
AcDbLayout
  1
Model
 70
     1
 71
     0
 10
0.0
 20
0.0
 11
297.0
 21
210.0
 12
0.0
 22
0.0
 32
0.0
 14
-2225.583220052922
 24
-464.6194353773251
 34
-0.0000000000000205
 15
3781.15402313682
 25
2056.526718261204
 35
0.0
146
0.0
 13
0.0
 23
0.0
 33
0.0
 16
1.0
 26
0.0
 36
0.0
 17
0.0
 27
1.0
 37
0.0
 76
     0
330
1F
331
29
  0
LAYOUT
  5
1E
102
{ACAD_REACTORS
330
1A
102
}
330
1A
100
AcDbPlotSettings
  1

  2
none_device
  4
ISO_A4_(297.00_x_210.00_MM)
  6

 40
7.5
 41
20.0
 42
7.5
 43
20.0
 44
297.0
 45
210.0
 46
-7.5
 47
-20.0
 48
0.0
 49
0.0
140
0.0
141
0.0
142
1.0
143
1.0
 70
   688
 72
     1
 73
     0
 74
     5
  7

 75
    16
 76
     0
 77
     2
 78
   300
147
1.0
148
0.0
149
0.0
100
AcDbLayout
  1
ペーパー 1
 70
     1
 71
     1
 10
0.0
 20
0.0
 11
297.0
 21
210.0
 12
0.0
 22
0.0
 32
0.0
 14
0.0
 24
0.0
 34
0.0
 15
297.0
 25
210.0
 35
0.0
146
0.0
 13
0.0
 23
0.0
 33
0.0
 16
1.0
 26
0.0
 36
0.0
 17
0.0
 27
1.0
 37
0.0
 76
     0
330
1B
331
216
  0
MLINESTYLE
  5
18
102
{ACAD_REACTORS
330
17
102
}
330
17
100
AcDbMlineStyle
  2
Standard
 70
     0
  3

 62
   256
 51
90.0
 52
90.0
 71
     5
 49
0.5
 62
   256
  6
BYLAYER
 49
-0.5
 62
   256
  6
BYLAYER
 49
5.0
 62
     7
  6
BYLAYER
 49
0.0
 62
     7
  6
BYLAYER
 49
16.0
 62
     7
  6
BYLAYER
  0
MLINESTYLE
  5
147
102
{ACAD_REACTORS
330
17
102
}
330
17
100
AcDbMlineStyle
  2
TCW_MLSTYLE_0
 70
     0
  3

 62
   256
 51
90.0
 52
90.0
 71
     3
 49
16.0
 62
     7
  6
BYLAYER
 49
5.0
 62
     7
  6
BYLAYER
 49
0.0
 62
     7
  6
BYLAYER
  0
ACDBPLACEHOLDER
  5
F
102
{ACAD_REACTORS
330
E
102
}
330
E
  0
SCALE
  5
3C
102
{ACAD_REACTORS
330
3B
102
}
330
3B
100
AcDbScale
 70
     0
300
1:1
140
1.0
141
1.0
290
     1
  0
SCALE
  5
3D
102
{ACAD_REACTORS
330
3B
102
}
330
3B
100
AcDbScale
 70
     0
300
1:2
140
1.0
141
2.0
290
     0
  0
SCALE
  5
3E
102
{ACAD_REACTORS
330
3B
102
}
330
3B
100
AcDbScale
 70
     0
300
1:4
140
1.0
141
4.0
290
     0
  0
SCALE
  5
3F
102
{ACAD_REACTORS
330
3B
102
}
330
3B
100
AcDbScale
 70
     0
300
1:5
140
1.0
141
5.0
290
     0
  0
SCALE
  5
40
102
{ACAD_REACTORS
330
3B
102
}
330
3B
100
AcDbScale
 70
     0
300
1:8
140
1.0
141
8.0
290
     0
  0
SCALE
  5
41
102
{ACAD_REACTORS
330
3B
102
}
330
3B
100
AcDbScale
 70
     0
300
1:10
140
1.0
141
10.0
290
     0
  0
SCALE
  5
42
102
{ACAD_REACTORS
330
3B
102
}
330
3B
100
AcDbScale
 70
     0
300
1:16
140
1.0
141
16.0
290
     0
  0
SCALE
  5
43
102
{ACAD_REACTORS
330
3B
102
}
330
3B
100
AcDbScale
 70
     0
300
1:20
140
1.0
141
20.0
290
     0
  0
SCALE
  5
44
102
{ACAD_REACTORS
330
3B
102
}
330
3B
100
AcDbScale
 70
     0
300
1:30
140
1.0
141
30.0
290
     0
  0
SCALE
  5
45
102
{ACAD_REACTORS
330
3B
102
}
330
3B
100
AcDbScale
 70
     0
300
1:40
140
1.0
141
40.0
290
     0
  0
SCALE
  5
46
102
{ACAD_REACTORS
330
3B
102
}
330
3B
100
AcDbScale
 70
     0
300
1:50
140
1.0
141
50.0
290
     0
  0
SCALE
  5
47
102
{ACAD_REACTORS
330
3B
102
}
330
3B
100
AcDbScale
 70
     0
300
1:100
140
1.0
141
100.0
290
     0
  0
SCALE
  5
48
102
{ACAD_REACTORS
330
3B
102
}
330
3B
100
AcDbScale
 70
     0
300
2:1
140
2.0
141
1.0
290
     0
  0
SCALE
  5
49
102
{ACAD_REACTORS
330
3B
102
}
330
3B
100
AcDbScale
 70
     0
300
4:1
140
4.0
141
1.0
290
     0
  0
SCALE
  5
4A
102
{ACAD_REACTORS
330
3B
102
}
330
3B
100
AcDbScale
 70
     0
300
8:1
140
8.0
141
1.0
290
     0
  0
SCALE
  5
4B
102
{ACAD_REACTORS
330
3B
102
}
330
3B
100
AcDbScale
 70
     0
300
10:1
140
10.0
141
1.0
290
     0
  0
SCALE
  5
4C
102
{ACAD_REACTORS
330
3B
102
}
330
3B
100
AcDbScale
 70
     0
300
100:1
140
100.0
141
1.0
290
     0
  0
SCALE
  5
4D
102
{ACAD_REACTORS
330
3B
102
}
330
3B
100
AcDbScale
 70
     0
300
1/128" = 1'-0"
140
0.0078125
141
12.0
290
     0
  0
SCALE
  5
4E
102
{ACAD_REACTORS
330
3B
102
}
330
3B
100
AcDbScale
 70
     0
300
1/64" = 1'-0"
140
0.015625
141
12.0
290
     0
  0
SCALE
  5
4F
102
{ACAD_REACTORS
330
3B
102
}
330
3B
100
AcDbScale
 70
     0
300
1/32" = 1'-0"
140
0.03125
141
12.0
290
     0
  0
SCALE
  5
50
102
{ACAD_REACTORS
330
3B
102
}
330
3B
100
AcDbScale
 70
     0
300
1/16" = 1'-0"
140
0.0625
141
12.0
290
     0
  0
SCALE
  5
51
102
{ACAD_REACTORS
330
3B
102
}
330
3B
100
AcDbScale
 70
     0
300
3/32" = 1'-0"
140
0.09375
141
12.0
290
     0
  0
SCALE
  5
52
102
{ACAD_REACTORS
330
3B
102
}
330
3B
100
AcDbScale
 70
     0
300
1/8" = 1'-0"
140
0.125
141
12.0
290
     0
  0
SCALE
  5
53
102
{ACAD_REACTORS
330
3B
102
}
330
3B
100
AcDbScale
 70
     0
300
3/16" = 1'-0"
140
0.1875
141
12.0
290
     0
  0
SCALE
  5
54
102
{ACAD_REACTORS
330
3B
102
}
330
3B
100
AcDbScale
 70
     0
300
1/4" = 1'-0"
140
0.25
141
12.0
290
     0
  0
SCALE
  5
55
102
{ACAD_REACTORS
330
3B
102
}
330
3B
100
AcDbScale
 70
     0
300
3/8" = 1'-0"
140
0.375
141
12.0
290
     0
  0
SCALE
  5
56
102
{ACAD_REACTORS
330
3B
102
}
330
3B
100
AcDbScale
 70
     0
300
1/2" = 1'-0"
140
0.5
141
12.0
290
     0
  0
SCALE
  5
57
102
{ACAD_REACTORS
330
3B
102
}
330
3B
100
AcDbScale
 70
     0
300
3/4" = 1'-0"
140
0.75
141
12.0
290
     0
  0
SCALE
  5
58
102
{ACAD_REACTORS
330
3B
102
}
330
3B
100
AcDbScale
 70
     0
300
1" = 1'-0"
140
1.0
141
12.0
290
     0
  0
SCALE
  5
59
102
{ACAD_REACTORS
330
3B
102
}
330
3B
100
AcDbScale
 70
     0
300
1-1/2" = 1'-0"
140
1.5
141
12.0
290
     0
  0
SCALE
  5
5A
102
{ACAD_REACTORS
330
3B
102
}
330
3B
100
AcDbScale
 70
     0
300
3" = 1'-0"
140
3.0
141
12.0
290
     0
  0
SCALE
  5
5B
102
{ACAD_REACTORS
330
3B
102
}
330
3B
100
AcDbScale
 70
     0
300
6" = 1'-0"
140
6.0
141
12.0
290
     0
  0
SCALE
  5
5C
102
{ACAD_REACTORS
330
3B
102
}
330
3B
100
AcDbScale
 70
     0
300
1'-0" = 1'-0"
140
12.0
141
12.0
290
     0
  0
TABLESTYLE
  5
71
102
{ACAD_REACTORS
330
70
102
}
330
70
100
AcDbTableStyle
  3

 70
     0
 71
     0
 40
1.302083333333333
 41
1.302083333333333
280
     0
281
     0
  7
Standard
140
3.90625
170
     5
 62
     0
 63
     7
421
 16383999
283
     0
 90
      512
 91
        0
  1

274
    -2
284
     1
 64
     0
275
    -2
285
     1
 65
     0
276
    -2
286
     1
 66
     0
277
    -2
287
     1
 67
     0
278
    -2
288
     1
 68
     0
279
    -2
289
     1
 69
     0
  7
Standard
140
3.90625
170
     5
 62
     0
 63
     7
421
 16383999
283
     0
 90
      512
 91
        0
  1

274
    -2
284
     1
 64
     0
275
    -2
285
     1
 65
     0
276
    -2
286
     1
 66
     0
277
    -2
287
     1
 67
     0
278
    -2
288
     1
 68
     0
279
    -2
289
     1
 69
     0
  7
Standard
140
3.90625
170
     5
 62
     0
 63
     7
421
 16383999
283
     0
 90
      512
 91
        0
  1

274
    -2
284
     1
 64
     0
275
    -2
285
     1
 65
     0
276
    -2
286
     1
 66
     0
277
    -2
287
     1
 67
     0
278
    -2
288
     1
 68
     0
279
    -2
289
     1
 69
     0
  0
VISUALSTYLE
  5
2F
102
{ACAD_REACTORS
330
2A
102
}
330
2A
100
AcDbVisualStyle
  2
2dWireframe
 70
     4
 71
     0
 72
     2
 73
     0
 90
        0
 40
-0.6
 41
-30.0
 62
     5
 63
     7
421
 16777215
 74
     1
 91
        4
 64
     7
 65
   257
 75
     1
175
     1
 42
1.0
 92
        0
 66
   257
 43
1.0
 76
     1
 77
     6
 78
     2
 67
     7
 79
     5
170
     0
171
     0
290
     0
174
     0
 93
        1
 44
0.0
173
     0
291
     0
 45
0.0
  0
VISUALSTYLE
  5
31
102
{ACAD_REACTORS
330
2A
102
}
330
2A
100
AcDbVisualStyle
  2
3D Hidden
 70
     6
 71
     1
 72
     2
 73
     2
 90
        0
 40
-0.6
 41
-30.0
 62
     5
 63
     7
421
 16777215
 74
     2
 91
        2
 64
     7
 65
   257
 75
     2
175
     1
 42
40.0
 92
        0
 66
   257
 43
1.0
 76
     1
 77
     6
 78
     2
 67
     7
 79
     3
170
     0
171
     0
290
     0
174
     0
 93
        1
 44
0.0
173
     0
291
     0
 45
0.0
  0
VISUALSTYLE
  5
30
102
{ACAD_REACTORS
330
2A
102
}
330
2A
100
AcDbVisualStyle
  2
3dWireframe
 70
     5
 71
     0
 72
     2
 73
     0
 90
        0
 40
-0.6
 41
-30.0
 62
     5
 63
     7
421
 16777215
 74
     1
 91
        4
 64
     7
 65
   257
 75
     1
175
     1
 42
1.0
 92
        0
 66
   257
 43
1.0
 76
     1
 77
     6
 78
     2
 67
     7
 79
     5
170
     0
171
     0
290
     0
174
     0
 93
        1
 44
0.0
173
     0
291
     0
 45
0.0
  0
VISUALSTYLE
  5
32
102
{ACAD_REACTORS
330
2A
102
}
330
2A
100
AcDbVisualStyle
  2
Basic
 70
     7
 71
     1
 72
     0
 73
     1
 90
        0
 40
-0.6
 41
-30.0
 62
     5
 63
     7
421
 16777215
 74
     0
 91
        4
 64
     7
 65
   257
 75
     1
175
     1
 42
1.0
 92
        8
 66
     7
 43
1.0
 76
     1
 77
     6
 78
     2
 67
     7
 79
     5
170
     0
171
     0
290
     0
174
     0
 93
        1
 44
0.0
173
     0
291
     1
 45
0.0
  0
VISUALSTYLE
  5
36
102
{ACAD_REACTORS
330
2A
102
}
330
2A
100
AcDbVisualStyle
  2
Brighten
 70
    12
 71
     2
 72
     2
 73
     0
 90
        0
 40
-0.6
 41
-30.0
 62
     5
 63
     7
421
 16777215
 74
     1
 91
        4
 64
     7
 65
   257
 75
     1
175
     1
 42
1.0
 92
        8
 66
     7
 43
1.0
 76
     1
 77
     6
 78
     2
 67
     7
 79
     5
170
     0
171
     0
290
     0
174
     0
 93
        1
 44
50.0
173
     0
291
     1
 45
0.0
  0
VISUALSTYLE
  5
3A
102
{ACAD_REACTORS
330
2A
102
}
330
2A
100
AcDbVisualStyle
  2
ColorChange
 70
    16
 71
     2
 72
     2
 73
     3
 90
        0
 40
-0.6
 41
-30.0
 62
     5
 63
     8
421
  8421504
 74
     1
 91
        4
 64
     7
 65
   257
 75
     1
175
     1
 42
1.0
 92
        8
 66
     8
424
  8421504
 43
1.0
 76
     1
 77
     6
 78
     2
 67
     7
 79
     5
170
     0
171
     0
290
     0
174
     0
 93
        1
 44
0.0
173
     0
291
     1
 45
0.0
  0
VISUALSTYLE
  5
34
102
{ACAD_REACTORS
330
2A
102
}
330
2A
100
AcDbVisualStyle
  2
Conceptual
 70
     9
 71
     3
 72
     2
 73
     0
 90
        0
 40
-0.6
 41
-30.0
 62
     5
 63
     7
421
 16777215
 74
     2
 91
        2
 64
     7
 65
   257
 75
     1
175
     1
 42
40.0
 92
        8
 66
     7
 43
1.0
 76
     1
 77
     6
 78
     2
 67
     7
 79
     3
170
     0
171
     0
290
     0
174
     0
 93
        1
 44
0.0
173
     0
291
     0
 45
0.0
  0
VISUALSTYLE
  5
35
102
{ACAD_REACTORS
330
2A
102
}
330
2A
100
AcDbVisualStyle
  2
Dim
 70
    11
 71
     2
 72
     2
 73
     0
 90
        0
 40
-0.6
 41
-30.0
 62
     5
 63
     7
421
 16777215
 74
     1
 91
        4
 64
     7
 65
   257
 75
     1
175
     1
 42
1.0
 92
        8
 66
     7
 43
1.0
 76
     1
 77
     6
 78
     2
 67
     7
 79
     5
170
     0
171
     0
290
     0
174
     0
 93
        1
 44
-50.0
173
     0
291
     1
 45
0.0
  0
VISUALSTYLE
  5
39
102
{ACAD_REACTORS
330
2A
102
}
330
2A
100
AcDbVisualStyle
  2
Facepattern
 70
    15
 71
     2
 72
     2
 73
     0
 90
        0
 40
-0.6
 41
-30.0
 62
     5
 63
     7
421
 16777215
 74
     1
 91
        4
 64
     7
 65
   257
 75
     1
175
     1
 42
1.0
 92
        8
 66
     7
 43
1.0
 76
     1
 77
     6
 78
     2
 67
     7
 79
     5
170
     0
171
     0
290
     0
174
     0
 93
        1
 44
0.0
173
     0
291
     1
 45
0.0
  0
VISUALSTYLE
  5
2B
102
{ACAD_REACTORS
330
2A
102
}
330
2A
100
AcDbVisualStyle
  2
Flat
 70
     0
 71
     2
 72
     1
 73
     1
 90
        2
 40
-0.6
 41
30.0
 62
     5
 63
     7
421
 16777215
 74
     0
 91
        4
 64
     7
 65
   257
 75
     1
175
     1
 42
1.0
 92
        8
 66
     7
 43
1.0
 76
     1
 77
     6
 78
     2
 67
     7
 79
     5
170
     0
171
     0
290
     0
174
     0
 93
       13
 44
0.0
173
     0
291
     1
 45
0.0
  0
VISUALSTYLE
  5
2C
102
{ACAD_REACTORS
330
2A
102
}
330
2A
100
AcDbVisualStyle
  2
FlatWithEdges
 70
     1
 71
     2
 72
     1
 73
     1
 90
        2
 40
-0.6
 41
30.0
 62
     5
 63
     7
421
 16777215
 74
     1
 91
        4
 64
     7
 65
   257
 75
     1
175
     1
 42
1.0
 92
        0
 66
   257
 43
1.0
 76
     1
 77
     6
 78
     2
 67
     7
 79
     5
170
     0
171
     0
290
     0
174
     0
 93
       13
 44
0.0
173
     0
291
     1
 45
0.0
  0
VISUALSTYLE
  5
2D
102
{ACAD_REACTORS
330
2A
102
}
330
2A
100
AcDbVisualStyle
  2
Gouraud
 70
     2
 71
     2
 72
     2
 73
     1
 90
        2
 40
-0.6
 41
30.0
 62
     5
 63
     7
421
 16777215
 74
     0
 91
        4
 64
     7
 65
   257
 75
     1
175
     1
 42
1.0
 92
        0
 66
     7
 43
1.0
 76
     1
 77
     6
 78
     2
 67
     7
 79
     5
170
     0
171
     0
290
     0
174
     0
 93
       13
 44
0.0
173
     0
291
     1
 45
0.0
  0
VISUALSTYLE
  5
2E
102
{ACAD_REACTORS
330
2A
102
}
330
2A
100
AcDbVisualStyle
  2
GouraudWithEdges
 70
     3
 71
     2
 72
     2
 73
     1
 90
        2
 40
-0.6
 41
30.0
 62
     5
 63
     7
421
 16777215
 74
     1
 91
        4
 64
     7
 65
   257
 75
     1
175
     1
 42
1.0
 92
        0
 66
   257
 43
1.0
 76
     1
 77
     6
 78
     2
 67
     7
 79
     5
170
     0
171
     0
290
     0
174
     0
 93
       13
 44
0.0
173
     0
291
     1
 45
0.0
  0
VISUALSTYLE
  5
38
102
{ACAD_REACTORS
330
2A
102
}
330
2A
100
AcDbVisualStyle
  2
Linepattern
 70
    14
 71
     2
 72
     2
 73
     0
 90
        0
 40
-0.6
 41
-30.0
 62
     5
 63
     7
421
 16777215
 74
     1
 91
        4
 64
     7
 65
   257
 75
     7
175
     7
 42
1.0
 92
        8
 66
     7
 43
1.0
 76
     1
 77
     6
 78
     2
 67
     7
 79
     5
170
     0
171
     0
290
     0
174
     0
 93
        1
 44
0.0
173
     0
291
     1
 45
0.0
  0
VISUALSTYLE
  5
33
102
{ACAD_REACTORS
330
2A
102
}
330
2A
100
AcDbVisualStyle
  2
Realistic
 70
     8
 71
     2
 72
     2
 73
     0
 90
        0
 40
-0.6
 41
-30.0
 62
     5
 63
     7
421
 16777215
 74
     1
 91
        0
 64
     7
 65
   257
 75
     1
175
     1
 42
1.0
 92
        8
 66
     8
424
  7895160
 43
1.0
 76
     1
 77
     6
 78
     2
 67
     7
 79
     5
170
     0
171
     0
290
     0
174
     0
 93
       13
 44
0.0
173
     0
291
     0
 45
0.0
  0
VISUALSTYLE
  5
37
102
{ACAD_REACTORS
330
2A
102
}
330
2A
100
AcDbVisualStyle
  2
Thicken
 70
    13
 71
     2
 72
     2
 73
     0
 90
        0
 40
-0.6
 41
-30.0
 62
     5
 63
     7
421
 16777215
 74
     1
 91
        4
 64
     7
 65
   257
 75
     1
175
     1
 42
1.0
 92
       12
 66
     7
 43
1.0
 76
     1
 77
     6
 78
     2
 67
     7
 79
     5
170
     0
171
     0
290
     0
174
     0
 93
        1
 44
0.0
173
     0
291
     1
 45
0.0
  0
ENDSEC
  0
SECTION
  2
THUMBNAILIMAGE
 90
    16364
310
28000000B40000005500000001000800000000000000000000000000000000000000000000000000FFFFFF000000FF0000FFFF0000FF0000FFFF0000FF000000FF00FF000000000080808000C0C0C0000000FF007F7FFF000000A5005252A50000007F003F3F7F0000004C0026264C000000260013132600003FFF007F9FFF
310
000029A5005267A500001F7F003F4F7F0000134C00262F4C000009260013172600007FFF007FBFFF000052A500527CA500003F7F003F5F7F0000264C0026394C0000132600131C260000BFFF007FDFFF00007CA5005291A500005F7F003F6F7F0000394C0026424C00001C26001321260000FFFF007FFFFF0000A5A50052A5
310
A500007F7F003F7F7F00004C4C00264C4C00002626001326260000FFBF007FFFDF0000A57C0052A59100007F5F003F7F6F00004C3900264C420000261C001326210000FF7F007FFFBF0000A5520052A57C00007F3F003F7F5F00004C2600264C39000026130013261C0000FF3F007FFF9F0000A5290052A56700007F1F003F
310
7F4F00004C1300264C2F00002609001326170000FF00007FFF7F0000A5000052A55200007F00003F7F3F00004C0000264C260000260000132613003FFF00009FFF7F0029A5000067A552001F7F00004F7F3F00134C00002F4C260009260000172613007FFF0000BFFF7F0052A500007CA552003F7F00005F7F3F00264C0000
310
394C2600132600001C261300BFFF0000DFFF7F007CA5000091A552005F7F00006F7F3F00394C0000424C26001C26000021261300FFFF0000FFFF7F00A5A50000A5A552007F7F00007F7F3F004C4C00004C4C26002626000026261300FFBF0000FFDF7F00A57C0000A59152007F5F00007F6F3F004C3900004C422600261C00
310
0026211300FF7F0000FFBF7F00A5520000A57C52007F3F00007F5F3F004C2600004C39260026130000261C1300FF3F0000FF9F7F00A5290000A56752007F1F00007F4F3F004C1300004C2F26002609000026171300FF000000FF7F7F00A5000000A55252007F0000007F3F3F004C0000004C2626002600000026131300FF00
310
3F00FF7F9F00A5002900A55267007F001F007F3F4F004C0013004C262F002600090026131700FF007F00FF7FBF00A5005200A5527C007F003F007F3F5F004C0026004C2639002600130026131C00FF00BF00FF7FDF00A5007C00A55291007F005F007F3F6F004C0039004C26420026001C0026132100FF00FF00FF7FFF00A5
310
00A500A552A5007F007F007F3F7F004C004C004C264C002600260026132600BF00FF00DF7FFF007C00A5009152A5005F007F006F3F7F0039004C0042264C001C002600211326007F00FF00BF7FFF005200A5007C52A5003F007F005F3F7F0026004C0039264C00130026001C1326003F00FF009F7FFF002900A5006752A500
310
1F007F004F3F7F0013004C002F264C000900260017132600000000002D2D2D005B5B5B0089898900B7B7B700B3B3B30007070707070707070707070707070707070707070707070707070707070707070707070707070707070707070707070707070707070707070707070707070707070707070707070707070707070707
310
07070707070707070707070707070707070707070707070707070707070707070707070707070707070707070707070707070707070707070707070707070707070707070707070707070707070707070707070707070707070707070707070707070707070707070707070707070707070707070707070707070707070707
310
07070707070707070707070707070707070707070707070707070707070707070707070707070707070707070707070707070707070707070707070707070707070707070707070707070707070707070707070707070707070707070707070707070707070707070707070707070707070707070707070707070707070707
310
07070707070707070707070707070707070707070707070707070707070707070707070707070707070707070707070707070707070707070707070707070707070707070707070707070707070707070707070707070707070707070707070707070707070707070707070707070707070707070707070707070707070707
310
07070707070707070707070707070707070707070707070707070707070707070707070707070707070707070707070707070707070707070707070707070707070707070707070707070707070707070707070707070707070707070707070707070707070707070707070707070707070707070707070707070707070707
310
07070707070707070707070707070707070707070707070707070707070707070707070707070707070707070707070707070707070707070707070707070707070707070707070707070707070707070707070707070707070707070707070707070707070707070707070707070707070707070707070707070707070707
310
07070707070707070707070707070707070707070707070707070707070707070707070707070707070707070707070707070707070707070707070707070707070707070707070707070707070707070707070707070707070707070707070707070707070707070707070707070707070707070707070707070707070707
310
07070707070707070707070707070707070707070707070707070707070707070707070707070707070707070707070707070707070707070707070707070707070707070707070707070707070707070707070707070707070707070707070707070707070707070707070707070707070707070707070707070707070707
310
07070707070707070707070707070707070707070707070707070707070707070707070707070707070707070707070707070707070707070707070707070707070707070707070707070707070707070707070707070707070707070707070707070707070707070707070707070707070707070707070707070707070707
310
07070707070707070707070707070707070707070707070707070707070707070707070707070707070707070707070707070707070707070707070707070707070707070707070707070707070707070707070707070707070707070707070707070707070707070707070707070707070707070707070707070707070707
310
07070707070707070707070707070707070707070707070707070707070707070707070707070707070707070707070707070707070707070707070707070707070707070707070707070707070707070707070707070707070707070707070707070707070707070707070707070707070707070707070707070707070707
310
07070707070707070707070707070707070707070707070707070707070707070707070707070707070707070707070707070707070707070707070707070707070707070707070707070707070707070707070707070707070707070707070707070707070707070707070707070707070707070707070707070707070707
310
07070707070707070707070707070707070707070707070707070707070707070707070707070707070707070707070707070707070707070707070707070707070707070707070707070707070707070707070707070707070707070707070707070707070707070707070707070707070707070707070707070707070707
310
07070707070707070707070707070707070707070707070707070707070707070707070707070707070707070707070707070707070707070707070707070707070707070707070707070707070707070707070707070707070707070707070707070707070707070707070707070707070707070707070707070707070707
310
07070707070707070707070707070707070707070707070707070707070707070707070707070707070707070707070707070707070707070707070707070707070707070707070707070707070707070707070707070707070707070707070707070707070707070707070707070707070707070707070707070707070707
310
07070707070707070707070707070707070707070707070707070707070707070707070707070707070707070707070707070707070707070707070707070707070707070707070707070707070707070707070707070707070707070707070707070707070707070707070707070707070707070707070707070707070707
310
07070707070707070707070707070707070707070707070707070707070707070707070707070707070707070707070707070707070707070707070707070707070707070707070707070707070707070707070707070707070707070707070707070707070707070707070707070707070707070707070707070707070707
310
07070707070707070707070707070707070707070707070707070707070707070707070707070707070707070707070707070707070707070707070707070707070707070707070707070707070707070707070707070707070707070707070707070707070707070707070707070707070707070707070707070707070707
310
07070707070707070707070707070707070707070707070707070707070707070707070707070707070707070707070707070707070707070707070707070707070707070707070707070707070707070707070707070707070707070707070707070707070707070707070707070707070707070707070707070707070707
310
07070707070707070707070707070707070707070707070707070707070707070707070707070707070707070707070707070707070707070707070707070707070707070707070707070707070707070707070707070707070707070707070707070707070707070707070707070707070707070707070707070707070707
310
07070707070707070707070707070707070707070707070707070707070707070707070707070707070707070707070707070707070707070707070707070707070707070707070707070707070707070707070707070707070707070707070707070707070707070707070707070707070707070707070707070707070707
310
07070707070707070707070707070707070707070707070707070707070707070707070707070707070707070707070707070707070707070707070707070707070707070707070707070707070707070707070707070707070707070707070707070707070707070707070707070707070707070707070707070707070707
310
07070707070707070707070707070707070707070707070707070707070707070707070707070707070707070707070707070707070707070707070707070707070707070707070707070707070707070707070707070707070707070707070707070707070707070707070707070707070707070707070707070707070707
310
07070707070707070707070707070707070707070707070707070707070707070707070707070707070707070707070707070707070707070707070707070707070707070707070707070707070707070707070707070707070707070707070707070707070707070707070707070707070707070707070707070707070707
310
07070707070707070707070707070707070707070707070707070707070707070707070707070707070707070707070707070707070707070707070707070707070707070707070707070707070707070707070707070707070707070707070707070707070707070707070707070707070707070707070707070707070707
310
07070707070707070707070707070707070707070707070707070707070707070707070707070707070707070707070707070707070707070707070707070707070707070707070707070707070707070707070707070707070707070707070707070707070707070707070707070707070707070707070707070707070707
310
07070707070707070707070707070707070707070707070707070707070707070707070707070707070707070707070707070707070707070707070707070707070707070707070707070707070707070707070707070707070707070707070707070707070707070707070707070707070707070707070707070707070707
310
07070707070707070707070707070707070707070707070707070707070707070707070707070707070707070707070707070707070707070707070707070707070707070707070707070707070707070707070707070707070707070707070707070707070707070707070707070707070707070707070707070707070707
310
07070707070707070707070707070707070707070707070707070707070707070707070707070707070707070707070707070707070707070707070707070707070707070707070707070707070707070707070707070707070707070707070707070707070707070707070707070707070707070707070707070707070707
310
07070707070707070707070707070707070707070707070707070707070707070707070707070707070707070707070707070707070707070707070707070707070707070707070707070707070707070707070707070707070707070707070707070707070707070707070707070707070707070707070707070707070707
310
07070707070707070707070707070707070707070707070707070707070707070707070707070707070707070707070707070707070707070707070707070707070707070707070707070707070707070707070707070707070707070707070707070707070707070707070707070707070707070707070707070707070707
310
07070707070707070707070707070707070707070707070707070707070707070707070707070707070707070707070707070707070707070707070707070707070707070707070707070707070707070707070707070707070707070707070707070707070707070707070707070707070707070707070707070707070707
310
07070707070707070707070707070707070707070707070707070707070707070707070707070707070707070707070707070707070707070707070707070707070707070707070707070707070707070707070707070707070707070707070707070707070707070707070707070707070707070707070707070707070707
310
07070707070707070707070707070707070707070707070707070707070707070707070707070707070707070707070707070707070707070707070707070707070707070707070707070707070707070707070707070707070707070707070707070707070707070707070707070707070707070707070707070707070707
310
07070707070707070707070707070707070707070707070707070707070707070707070707070707070707070707070707070707070707070707070707070707070707070707070707070707070707070707070707070707070707070707070707070707070707070707070707070707070707070707070707070707070707
310
07070707070707070707070707070707070707070707070707070707070707070707070707070707070707070707070707070707070707070707070707070707070707070707070707070707070707070707070707070707070707070707070707070707070707070707070707070707070707070707070707070707070707
310
07070707070707070707070707070707070707070707070707070707070707070707070707070707070707070707070707070707070707070707070707070707070707070707070707070707070707070707070707070707070707070707070707070707070707070707070707070707070707070707070707070707070707
310
07070707070707070707070707070707070707070707070707070707070707070707070707070707070707070707070707070707070707070707070707070707070707070707070707070707070707070707070707070707070707070707070707070707070707070707070707070707070707070707070707070707070707
310
07070707070707070707070707070707070707070707070707070707070707070707070707070707070707070707070707070707070707070707070707070707070707070707070707070707070707070707070707070707070707070707070707070707070707070707070707070707070707070707070707070707070707
310
07070707070707070707070707070707070707070707070707070707070707070707070707070707070707070707070707070707070707070707070707070707070707070707070707070707070707070707070707070707070707070707070707070707070707070707070707070707070707070707070707070707070707
310
07070707070707070707070707070707070707070707070707070707070707070707070707070707070707070707070707070707070707070707070707070707070707070707070707070707070707070707070707070707070707070707070707070707070707070707070707070707070707070707070707070707070707
310
07070707070707070707070707070707070707070707070707070707070707070707070707070707070707070707070707070707070707070707070707070707070707070707070707070707070707070707070707070707070707070707070707070707070707070707070707070707070707070707070707070707070707
310
07070707070707070707070707070707070707070707070707070707070707070707070707070707070707070707070707070707070707070707070707070707070707070707070707070707070707070707070707070707070707070707070707070707070707070707070707070707070707070707070707070707070707
310
07070707070707070707070707070707070707070707070707070707070707070707070707070707070707070707070707070707070707070707070707070707070707070707070707070707070707070707070707070707070707070707070707070707070707070707070707070707070707070707070707070707070707
310
07070707070707070707070707070707070707070707070707070707070707070707070707070707070707070707070707070707070707070707070707070707070707070707070707070707070707070707070707070707070707070707070707070707070707070707070707070707070707070707070707070707070707
310
07070707070707070707070707070707070707070707070707070707070707070707070707070707070707070707070707070707070707070707070707070707070707070707070707070707070707070707070707070707070707070707070707070707070707070707070707070707070707070707070707070707070707
310
07070707070707070707070707070707070707070707070707070707070707070707070707070707070707070707070707070707070707070707070707070707070707070707070707070707070707070707070707070707070707070707070707070707070707070707070707070707070707070707070707070707070707
310
07070707070707070707070707070707070707070707070707070707070707070707070707070707070707070707070707070707070707070707070707070707070707070707070707070707070707070707070707070707070707070707070707070707070707070707070707070707070707070707070707070707070707
310
07070707070707070707070707070707070707070707070707070707070707070707070707070707070707070707070707070707070707070707070707070707070707070707070707070707070707070707070707070707070707070707070707070707070707070707070707070707070707070707070707070707070707
310
07070707070707070707070707070707070707070707070707070707070707070707070707070707070707070707070707070707070707070707070707070707070707070707070707070707070707070707070707070707070707070707070707070707070707070707070707070707070707070707070707070707070707
310
07070707070707070707070707070707070707070707070707070707070707070707070707070707070707070707070707070707070707070707070707070707070707070707070707070707070707070707070707070707070707070707070707070707070707070707070707070707070707070707070707070707070707
310
07070707070707070707070707070707070707070707070707070707070707070707070707070707070707070707070707070707070707070707070707070707070707070707070707070707070707070707070707070707070707070707070707070707070707070707070707070707070707070707070707070707070707
310
07070707070707070707070707070707070707070707070707070707070707070707070707070707070707070707070707070707070707070707070707070707070707070707070707070707070707070707070707070707070707070707070707070707070707070707070707070707070707070707070707070707070707
310
07070707070707070707070707070707070707070707070707070707070707070707070707070707070707070707070707070707070707070707070707070707070707070707070707070707070707070707070707070707070707070707070707070707070707070707070707070707070707070707070707070707070707
310
07070707070707070707070707070707070707070707070707070707070707070707070707070707070707070707070707070707070707070707070707070707070707070707070707070707070707070707070707070707070707070707070707070707070707070707070707070707070707070707070707070707070707
310
07070707070707070707070707070707070707070707070707070707070707070707070707070707070707070707070707070707070707070707070707070707070707070707070707070707070707070707070707070707070707070707070707070707070707070707070707070707070707070707070707070707070707
310
07070707070707070707070707070707070707070707070707070707070707070707070707070707070707070707070707070707070707070707070707070707070707070707070707070707070707070707070707070707070707070707070707070707070707070707070707070707070707070707070707070707070707
310
07070707070707070707070707070707070707070707070707070707070707070707070707070707070707070707070707070707070707070707070707070707070707070707070707070707070707070707070707070707070707070707070707070707070707070707070707070707070707070707070707070707070707
310
07070707070707070707070707070707070707070707070707070707070707070707070707070707070707070707070707070707070707070707070707070707070707070707070707070707070707070707070707070707070707070707070707070707070707070707070707070707070707070707070707070707070707
310
07070707070707070707070707070707070707070707070707070707070707070707070707070707070707070707070707070707070707070707070707070707070707070707070707070707070707070707070707070707070707070707070707070707070707070707070707070707070707070707070707070707070707
310
07070707070707070707070707070707070707070707070707070707070707070707070707070707070707070707070707070707070707070707070707070707070707070707070707070707070707070707070707070707070707070707070707070707070707070707070707070707070707070707070707070707070707
310
07070707070707070707070707070707070707070707070707070707070707070707070707070707070707070707070707070707070707070707070707070707070707070707070707070707070707070707070707070707070707070707070707070707070707070707070707070707070707070707070707070707070707
310
07070707070707070707070707070707070707070707070707070707070707070707070707070707070707070707070707070707070707070707070707070707070707070707070707070707070707070707070707070707070707070707070707070707070707070707070707070707070707070707070707070707070707
310
07070707070707070707070707070707070707070707070707070707070707070707070707070707070707070707070707070707070707070707070707070707070707070707070707070707070707070707070707070707070707070707070707070707070707070707070707070707070707070707070707070707070707
310
07070707070707070707070707070707070707070707070707070707070707070707070707070707070707070707070707070707070707070707070707070707070707070707070707070707070707070707070707070707070707070707070707070707070707070707070707070707070707070707070707070707070707
310
07070707070707070707070707070707070707070707070707070707070707070707070707070707070707070707070707070707070707070707070707070707070707070707070707070707070707070707070707070707070707070707070707070707070707070707070707070707070707070707070707070707070707
310
07070707070707070707070707070707070707070707070707070707070707070707070707070707070707070707070707070707070707070707070707070707070707070707070707070707070707070707070707070707070707070707070707070707070707070707070707070707070707070707070707070707070707
310
07070707070707070707070707070707070707070707070707070707070707070707070707070707070707070707070707070707070707070707070707070707070707070707070707070707070707070707070707070707070707070707070707070707070707070707070707070707070707070707070707070707070707
310
07070707070707070707070707070707070707070707070707070707070707070707070707070707070707070707070707070707070707070707070707070707070707070707070707070707070707070707070707070707070707070707070707070707070707070707070707070707070707070707070707070707070707
310
07070707070707070707070707070707070707070707070707070707070707070707070707070707070707070707070707070707070707070707070707070707070707070707070707070707070707070707070707070707070707070707070707070707070707070707070707070707070707070707070707070707070707
310
07070707070707070707070707070707070707070707070707070707070707070707070707070707070707070707070707070707070707070707070707070707070707070707070707070707070707070707070707070707070707070707070707070707070707070707070707070707070707070707070707070707070707
310
07070707070707070707070707070707070707070707070707070707070707070707070707070707070707070707070707070707070707070707070707070707070707070707070707070707070707070707070707070707070707070707070707070707070707070707070707070707070707070707070707070707070707
310
07070707070707070707070707070707070707070707070707070707070707070707070707070707070707070707070707070707070707070707070707070707070707070707070707070707070707070707070707070707070707070707070707070707070707070707070707070707070707070707070707070707070707
310
07070707070707070707070707070707070707070707070707070707070707070707070707070707070707070707070707070707070707070707070707070707070707070707070707070707070707070707070707070707070707070707070707070707070707070707070707070707070707070707070707070707070707
310
07070707070707070707070707070707070707070707070707070707070707070707070707070707070707070707070707070707070707070707070707070707070707070707070707070707070707070707070707070707070707070707070707070707070707070707070707070707070707070707070707070707070707
310
07070707070707070707070707070707070707070707070707070707070707070707070707070707070707070707070707070707070707070707070707070707070707070707070707070707070707070707070707070707070707070707070707070707070707070707070707070707070707070707070707070707070707
310
07070707070707070707070707070707070707070707070707070707070707070707070707070707070707070707070707070707070707070707070707070707070707070707070707070707070707070707070707070707070707070707070707070707070707070707070707070707070707070707070707070707070707
310
07070707070707070707070707070707070707070707070707070707070707070707070707070707070707070707070707070707070707070707070707070707070707070707070707070707070707070707070707070707070707070707070707070707070707070707070707070707070707070707070707070707070707
310
07070707070707070707070707070707070707070707070707070707070707070707070707070707070707070707070707070707070707070707070707070707070707070707070707070707070707070707070707070707070707070707070707070707070707070707070707070707070707070707070707070707070707
310
07070707070707070707070707070707070707070707070707070707070707070707070707070707070707070707070707070707070707070707070707070707070707070707070707070707070707070707070707070707070707070707070707070707070707070707070707070707070707070707070707070707070707
310
07070707070707070707070707070707070707070707070707070707070707070707070707070707070707070707070707070707070707070707070707070707070707070707070707070707070707070707070707070707070707070707070707070707070707070707070707070707070707070707070707070707070707
310
07070707070707070707070707070707070707070707070707070707070707070707070707070707070707070707070707070707070707070707070707070707070707070707070707070707070707070707070707070707070707070707070707070707070707070707070707070707070707070707070707070707070707
310
07070707070707070707070707070707070707070707070707070707070707070707070707070707070707070707070707070707070707070707070707070707070707070707070707070707070707070707070707070707070707070707070707070707070707070707070707070707070707070707070707070707070707
310
07070707070707070707070707070707070707070707070707070707070707070707070707070707070707070707070707070707070707070707070707070707070707070707070707070707070707070707070707070707070707070707070707070707070707070707070707070707070707070707070707070707070707
310
07070707070707070707070707070707070707070707070707070707070707070707070707070707070707070707070707070707070707070707070707070707070707070707070707070707070707070707070707070707070707070707070707070707070707070707070707070707070707070707070707070707070707
310
07070707070707070707070707070707070707070707070707070707070707070707070707070707070707070707070707070707070707070707070707070707070707070707070707070707070707070707070707070707070707070707070707070707070707070707070707070707070707070707070707070707070707
310
07070707070707070707070707070707070707070707070707070707070707070707070707070707070707070707070707070707070707070707070707070707070707070707070707070707070707070707070707070707070707070707070707070707070707070707070707070707070707070707070707070707070707
310
07070707070707070707070707070707070707070707070707070707070707070707070707070707070707070707070707070707070707070707070707070707070707070707070707070707070707070707070707070707070707070707070707070707070707070707070707070707070707070707070707070707070707
310
07070707070707070707070707070707070707070707070707070707070707070707070707070707070707070707070707070707070707070707070707070707070707070707070707070707070707070707070707070707070707070707070707070707070707070707070707070707070707070707070707070707070707
310
07070707070707070707070707070707070707070707070707070707070707070707070707070707070707070707070707070707070707070707070707070707070707070707070707070707070707070707070707070707070707070707070707070707070707070707070707070707070707070707070707070707070707
310
07070707070707070707070707070707070707070707070707070707070707070707070707070707070707070707070707070707070707070707070707070707070707070707070707070707070707070707070707070707070707070707070707070707070707070707070707070707070707070707070707070707070707
310
07070707070707070707070707070707070707070707070707070707070707070707070707070707070707070707070707070707070707070707070707070707070707070707070707070707070707070707070707070707070707070707070707070707070707070707070707070707070707070707070707070707070707
310
07070707070707070707070707070707070707070707070707070707070707070707070707070707070707070707070707070707070707070707070707070707070707070707070707070707070707070707070707070707070707070707070707070707070707070707070707070707070707070707070707070707070707
310
07070707070707070707070707070707070707070707070707070707070707070707070707070707070707070707070707070707070707070707070707070707070707070707070707070707070707070707070707070707070707070707070707070707070707070707070707070707070707070707070707070707070707
310
07070707070707070707070707070707070707070707070707070707070707070707070707070707070707070707070707070707070707070707070707070707070707070707070707070707070707070707070707070707070707070707070707070707070707070707070707070707070707070707070707070707070707
310
07070707070707070707070707070707070707070707070707070707070707070707070707070707070707070707070707070707070707070707070707070707070707070707070707070707070707070707070707070707070707070707070707070707070707070707070707070707070707070707070707070707070707
310
07070707070707070707070707070707070707070707070707070707070707070707070707070707070707070707070707070707070707070707070707070707070707070707070707070707070707070707070707070707070707070707070707070707070707070707070707070707070707070707070707070707070707
310
07070707070707070707070707070707070707070707070707070707070707070707070707070707070707070707070707070707070707070707070707070707070707070707070707070707070707070707070707070707070707070707070707070707070707070707070707070707070707070707070707070707070707
310
07070707070707070707070707070707070707070707070707070707070707070707070707070707070707070707070707070707070707070707070707070707070707070707070707070707070707070707070707070707070707070707070707070707070707070707070707070707070707070707070707070707070707
310
07070707070707070707070707070707070707070707070707070707070707070707070707070707070707070707070707070707070707070707070707070707070707070707070707070707070707070707070707070707070707070707070707070707070707070707070707070707070707070707070707070707070707
310
07070707070707070707070707070707070707070707070707070707070707070707070707070707070707070707070707070707070707070707070707070707070707070707070707070707070707070707070707070707070707070707070707070707070707070707070707070707070707070707070707070707070707
310
07070707070707070707070707070707070707070707070707070707070707070707070707070707070707070707070707070707070707070707070707070707070707070707070707070707070707070707070707070707070707070707070707070707070707070707070707070707070707070707070707070707070707
310
07070707070707070707070707070707070707070707070707070707070707070707070707070707070707070707070707070707070707070707070707070707070707070707070707070707070707070707070707070707070707070707070707070707070707070707070707070707070707070707070707070707070707
310
07070707070707070707070707070707070707070707070707070707070707070707070707070707070707070707070707070707070707070707070707070707070707070707070707070707070707070707070707070707070707070707070707070707070707070707070707070707070707070707070707070707070707
310
07070707070707070707070707070707070707070707070707070707070707070707070707070707070707070707070707070707070707070707070707070707070707070707070707070707070707070707070707070707070707070707070707070707070707070707070707070707070707070707070707070707070707
310
07070707070707070707070707070707070707070707070707070707070707070707070707070707070707070707070707070707070707070707070707070707070707070707070707070707070707070707070707070707070707070707070707070707070707070707070707070707070707070707070707070707070707
310
07070707070707070707070707070707070707070707070707070707070707070707070707070707070707070707070707070707070707070707070707070707070707070707070707070707070707070707070707070707070707070707070707070707070707070707070707070707070707070707070707070707070707
310
07070707070707070707070707070707070707070707070707070707070707070707070707070707070707070707070707070707070707070707070707070707070707070707070707070707070707070707070707070707070707070707070707070707070707070707070707070707070707070707070707070707070707
310
07070707070707070707070707070707070707070707070707070707070707070707070707070707070707070707070707070707070707070707070707070707070707070707070707070707070707070707070707070707070707070707070707070707070707070707070707070707070707070707070707070707070707
310
07070707070707070707070707070707070707070707070707070707070707070707070707070707070707070707070707070707070707070707070707070707070707070707070707070707070707070707070707070707070707070707070707070707070707070707070707070707070707070707070707070707070707
310
07070707070707070707070707070707070707070707070707070707070707070707070707070707070707070707070707070707070707070707070707070707070707070707070707070707070707070707070707070707070707070707070707070707070707070707070707070707070707070707070707070707070707
310
07070707070707070707070707070707070707070707070707070707070707070707070707070707070707070707070707070707070707070707070707070707070707070707070707070707070707070707070707070707070707070707070707070707070707070707070707070707070707070707070707070707070707
310
07070707070707070707070707070707070707070707070707070707070707070707070707070707070707070707070707070707070707070707070707070707070707070707070707070707070707070707070707070707070707070707070707070707070707070707070707070707070707070707070707070707070707
310
07070707070707070707070707070707070707070707070707070707070707070707070707070707070707070707070707070707070707070707070707070707070707070707070707070707070707070707070707070707070707070707070707070707070707070707070707070707070707070707070707070707070707
310
07070707070707070707070707070707070707070707070707070707070707070707070707070707070707070707070707070707070707070707070707070707070707070707070707070707070707070707070707070707070707070707070707070707070707070707070707070707070707070707070707070707070707
310
07070707070707070707070707070707070707070707070707070707070707070707070707070707070707070707070707070707070707070707070707070707070707070707070707070707070707070707070707070707070707070707070707070707070707070707070707070707070707070707070707070707070707
310
07070707070707070707070707070707070707070707070707070707070707070707070707070707070707070707070707070707070707070707070707070707070707070707070707070707070707070707070707070707070707070707070707070707070707070707070707070707070707070707070707070707070707
310
07070707070707070707070707070707070707070707070707070707070707070707070707070707070707070707070707070707070707070707070707070707070707070707070707070707070707070707070707070707070707070707070707070707070707070707070707070707070707070707070707070707070707
310
07070707070707070707070707070707070707070707070707070707070707070707070707070707070707070707070707070707070707070707070707070707070707070707070707070707070707070707070707070707070707070707070707070707070707070707070707070707070707070707070707070707070707
310
07070707070707070707070707070707070707070707070707070707070707070707070707070707070707070707070707070707070707070707070707070707070707070707070707070707070707070707070707070707070707070707070707070707070707070707070707070707070707070707070707070707070707
310
070707070707070707070707070707070707070707070707070707070707070707070707070707070707070707070707070707070707070707070707070707070707070707070707070707070707070707070707070707070707070707070707070707070707070707070707
  0
ENDSEC
  0
EOF
